  0
SECTION
  2
HEADER
  9
$ACADVER
  1
AC1018
  9
$ACADMAINTVER
 70
     0
  9
$DWGCODEPAGE
  3
ANSI_1252
  9
$INSBASE
 10
0.0
 20
0.0
 30
0.0
  9
$EXTMIN
 10
-28.0499992797445
 20
731.3265379865035
 30
0.0
  9
$EXTMAX
 10
268.9500007202536
 20
941.3265379865036
 30
0.0
  9
$LIMMIN
 10
0.0
 20
0.0
  9
$LIMMAX
 10
12.0
 20
9.0
  9
$ORTHOMODE
 70
     0
  9
$REGENMODE
 70
     1
  9
$FILLMODE
 70
     1
  9
$QTEXTMODE
 70
     0
  9
$MIRRTEXT
 70
     1
  9
$LTSCALE
 40
1.0
  9
$ATTMODE
 70
     1
  9
$TEXTSIZE
 40
0.2
  9
$TRACEWID
 40
0.05
  9
$TEXTSTYLE
  7
Standard
  9
$CLAYER
  8
0
  9
$CELTYPE
  6
ByLayer
  9
$CECOLOR
 62
   256
  9
$CELTSCALE
 40
1.0
  9
$DISPSILH
 70
     0
  9
$DIMSCALE
 40
1.0
  9
$DIMASZ
 40
0.18
  9
$DIMEXO
 40
0.0625
  9
$DIMDLI
 40
0.38
  9
$DIMRND
 40
0.0
  9
$DIMDLE
 40
0.0
  9
$DIMEXE
 40
0.18
  9
$DIMTP
 40
0.0
  9
$DIMTM
 40
0.0
  9
$DIMTXT
 40
0.18
  9
$DIMCEN
 40
0.09
  9
$DIMTSZ
 40
0.0
  9
$DIMTOL
 70
     0
  9
$DIMLIM
 70
     0
  9
$DIMTIH
 70
     1
  9
$DIMTOH
 70
     1
  9
$DIMSE1
 70
     0
  9
$DIMSE2
 70
     0
  9
$DIMTAD
 70
     0
  9
$DIMZIN
 70
     0
  9
$DIMBLK
  1

  9
$DIMASO
 70
     1
  9
$DIMSHO
 70
     1
  9
$DIMPOST
  1

  9
$DIMAPOST
  1

  9
$DIMALT
 70
     0
  9
$DIMALTD
 70
     2
  9
$DIMALTF
 40
25.4
  9
$DIMLFAC
 40
1.0
  9
$DIMTOFL
 70
     0
  9
$DIMTVP
 40
0.0
  9
$DIMTIX
 70
     0
  9
$DIMSOXD
 70
     0
  9
$DIMSAH
 70
     0
  9
$DIMBLK1
  1

  9
$DIMBLK2
  1

  9
$DIMSTYLE
  2
Standard
  9
$DIMCLRD
 70
     0
  9
$DIMCLRE
 70
     0
  9
$DIMCLRT
 70
     0
  9
$DIMTFAC
 40
1.0
  9
$DIMGAP
 40
0.09
  9
$DIMJUST
 70
     0
  9
$DIMSD1
 70
     0
  9
$DIMSD2
 70
     0
  9
$DIMTOLJ
 70
     1
  9
$DIMTZIN
 70
     0
  9
$DIMALTZ
 70
     0
  9
$DIMALTTZ
 70
     0
  9
$DIMUPT
 70
     0
  9
$DIMDEC
 70
     4
  9
$DIMTDEC
 70
     4
  9
$DIMALTU
 70
     2
  9
$DIMALTTD
 70
     2
  9
$DIMTXSTY
  7
Standard
  9
$DIMAUNIT
 70
     0
  9
$DIMADEC
 70
     0
  9
$DIMALTRND
 40
0.0
  9
$DIMAZIN
 70
     0
  9
$DIMDSEP
 70
    46
  9
$DIMATFIT
 70
     3
  9
$DIMFRAC
 70
     0
  9
$DIMLDRBLK
  1

  9
$DIMLUNIT
 70
     2
  9
$DIMLWD
 70
    -2
  9
$DIMLWE
 70
    -2
  9
$DIMTMOVE
 70
     0
  9
$LUNITS
 70
     2
  9
$LUPREC
 70
     4
  9
$SKETCHINC
 40
0.1
  9
$FILLETRAD
 40
0.5
  9
$AUNITS
 70
     0
  9
$AUPREC
 70
     0
  9
$MENU
  1
.
  9
$ELEVATION
 40
0.0
  9
$PELEVATION
 40
0.0
  9
$THICKNESS
 40
0.0
  9
$LIMCHECK
 70
     0
  9
$CHAMFERA
 40
0.5
  9
$CHAMFERB
 40
0.5
  9
$CHAMFERC
 40
1.0
  9
$CHAMFERD
 40
0.0
  9
$SKPOLY
 70
     0
  9
$TDCREATE
 40
2458204.665932049
  9
$TDUCREATE
 40
2458204.582598715
  9
$TDUPDATE
 40
2458204.665932592
  9
$TDUUPDATE
 40
2458204.582599259
  9
$TDINDWG
 40
0.0000000116
  9
$TDUSRTIMER
 40
0.0000000116
  9
$USRTIMER
 70
     1
  9
$ANGBASE
 50
0.0
  9
$ANGDIR
 70
     0
  9
$PDMODE
 70
     0
  9
$PDSIZE
 40
0.0
  9
$PLINEWID
 40
0.0
  9
$SPLFRAME
 70
     0
  9
$SPLINETYPE
 70
     6
  9
$SPLINESEGS
 70
     8
  9
$HANDSEED
  5
2A9
  9
$SURFTAB1
 70
     6
  9
$SURFTAB2
 70
     6
  9
$SURFTYPE
 70
     6
  9
$SURFU
 70
     6
  9
$SURFV
 70
     6
  9
$UCSBASE
  2

  9
$UCSNAME
  2

  9
$UCSORG
 10
0.0
 20
0.0
 30
0.0
  9
$UCSXDIR
 10
1.0
 20
0.0
 30
0.0
  9
$UCSYDIR
 10
0.0
 20
1.0
 30
0.0
  9
$UCSORTHOREF
  2

  9
$UCSORTHOVIEW
 70
     0
  9
$UCSORGTOP
 10
0.0
 20
0.0
 30
0.0
  9
$UCSORGBOTTOM
 10
0.0
 20
0.0
 30
0.0
  9
$UCSORGLEFT
 10
0.0
 20
0.0
 30
0.0
  9
$UCSORGRIGHT
 10
0.0
 20
0.0
 30
0.0
  9
$UCSORGFRONT
 10
0.0
 20
0.0
 30
0.0
  9
$UCSORGBACK
 10
0.0
 20
0.0
 30
0.0
  9
$PUCSBASE
  2

  9
$PUCSNAME
  2

  9
$PUCSORG
 10
0.0
 20
0.0
 30
0.0
  9
$PUCSXDIR
 10
1.0
 20
0.0
 30
0.0
  9
$PUCSYDIR
 10
0.0
 20
1.0
 30
0.0
  9
$PUCSORTHOREF
  2

  9
$PUCSORTHOVIEW
 70
     0
  9
$PUCSORGTOP
 10
0.0
 20
0.0
 30
0.0
  9
$PUCSORGBOTTOM
 10
0.0
 20
0.0
 30
0.0
  9
$PUCSORGLEFT
 10
0.0
 20
0.0
 30
0.0
  9
$PUCSORGRIGHT
 10
0.0
 20
0.0
 30
0.0
  9
$PUCSORGFRONT
 10
0.0
 20
0.0
 30
0.0
  9
$PUCSORGBACK
 10
0.0
 20
0.0
 30
0.0
  9
$USERI1
 70
     0
  9
$USERI2
 70
     0
  9
$USERI3
 70
     0
  9
$USERI4
 70
     0
  9
$USERI5
 70
     0
  9
$USERR1
 40
18.1
  9
$USERR2
 40
0.0
  9
$USERR3
 40
0.0
  9
$USERR4
 40
0.0
  9
$USERR5
 40
0.0
  9
$WORLDVIEW
 70
     1
  9
$SHADEDGE
 70
     3
  9
$SHADEDIF
 70
    70
  9
$TILEMODE
 70
     1
  9
$MAXACTVP
 70
    64
  9
$PINSBASE
 10
0.0
 20
0.0
 30
0.0
  9
$PLIMCHECK
 70
     0
  9
$PEXTMIN
 10
1.00000000000000E+20
 20
1.00000000000000E+20
 30
1.00000000000000E+20
  9
$PEXTMAX
 10
-1.00000000000000E+20
 20
-1.00000000000000E+20
 30
-1.00000000000000E+20
  9
$PLIMMIN
 10
0.0
 20
0.0
  9
$PLIMMAX
 10
12.0
 20
9.0
  9
$UNITMODE
 70
     0
  9
$VISRETAIN
 70
     1
  9
$PLINEGEN
 70
     0
  9
$PSLTSCALE
 70
     1
  9
$TREEDEPTH
 70
  3020
  9
$CMLSTYLE
  2
Standard
  9
$CMLJUST
 70
     0
  9
$CMLSCALE
 40
1.0
  9
$PROXYGRAPHICS
 70
     1
  9
$MEASUREMENT
 70
     1
  9
$CELWEIGHT
370
    -1
  9
$ENDCAPS
280
     0
  9
$JOINSTYLE
280
     0
  9
$LWDISPLAY
290
     0
  9
$INSUNITS
 70
     4
  9
$HYPERLINKBASE
  1

  9
$STYLESHEET
  1

  9
$XEDIT
290
     1
  9
$CEPSNTYPE
380
     0
  9
$PSTYLEMODE
290
     1
  9
$FINGERPRINTGUID
  2
{1EC90C37-2585-463B-A9A1-A16FFAA49C33}
  9
$VERSIONGUID
  2
{FAEB1C32-E019-11D5-929B-00C0DF256EC4}
  9
$EXTNAMES
290
     1
  9
$PSVPSCALE
 40
0.0
  9
$OLESTARTUP
290
     0
  9
$SORTENTS
280
   127
  9
$INDEXCTL
280
     0
  9
$HIDETEXT
280
     1
  9
$XCLIPFRAME
290
     0
  9
$HALOGAP
280
     0
  9
$OBSCOLOR
 70
   257
  9
$OBSLTYPE
280
     0
  9
$INTERSECTIONDISPLAY
280
     0
  9
$INTERSECTIONCOLOR
 70
   257
  9
$DIMASSOC
280
     2
  9
$PROJECTNAME
  1

  0
ENDSEC
  0
SECTION
  2
CLASSES
  0
CLASS
  1
ACDBDICTIONARYWDFLT
  2
AcDbDictionaryWithDefault
  3
ObjectDBX Classes
 90
        0
 91
        4
280
     0
281
     0
  0
CLASS
  1
VISUALSTYLE
  2
AcDbVisualStyle
  3
ObjectDBX Classes
 90
     4095
 91
        4
280
     0
281
     0
  0
CLASS
  1
MATERIAL
  2
AcDbMaterial
  3
ObjectDBX Classes
 90
     1153
 91
        4
280
     0
281
     0
  0
ENDSEC
  0
SECTION
  2
TABLES
  0
TABLE
  2
VPORT
  5
8
330
0
100
AcDbSymbolTable
 70
     1
  0
VPORT
  5
29
330
8
100
AcDbSymbolTableRecord
100
AcDbViewportTableRecord
  2
*Active
 70
     0
 10
0.0
 20
0.0
 11
1.0
 21
1.0
 12
120.4500007202546
 22
836.3265379865036
 13
0.0
 23
0.0
 14
0.5
 24
0.5
 15
0.5
 25
0.5
 16
0.0
 26
0.0
 36
1.0
 17
0.0
 27
0.0
 37
0.0
 40
231.0000000000001
 41
1.60267857142857
 42
50.0
 43
0.0
 44
0.0
 50
0.0
 51
0.0
 71
     0
 72
   100
 73
     1
 74
     3
 75
     0
 76
     0
 77
     0
 78
     0
281
     0
 65
     1
110
0.0
120
0.0
130
0.0
111
1.0
121
0.0
131
0.0
112
0.0
122
1.0
132
0.0
 79
     0
146
0.0
  0
ENDTAB
  0
TABLE
  2
LTYPE
  5
5
330
0
100
AcDbSymbolTable
 70
     8
  0
LTYPE
  5
14
330
5
100
AcDbSymbolTableRecord
100
AcDbLinetypeTableRecord
  2
ByBlock
 70
     0
  3

 72
    65
 73
     0
 40
0.0
  0
LTYPE
  5
15
330
5
100
AcDbSymbolTableRecord
100
AcDbLinetypeTableRecord
  2
ByLayer
 70
     0
  3

 72
    65
 73
     0
 40
0.0
  0
LTYPE
  5
16
330
5
100
AcDbSymbolTableRecord
100
AcDbLinetypeTableRecord
  2
Continuous
 70
     0
  3
Solid line
 72
    65
 73
     0
 40
0.0
  0
LTYPE
  5
3F
330
5
100
AcDbSymbolTableRecord
100
AcDbLinetypeTableRecord
  2
DASHED
 70
     0
  3
Dashed
 72
    65
 73
     2
 40
15.0
 49
7.0
 74
     0
 49
-8.0
 74
     0
  0
LTYPE
  5
40
330
5
100
AcDbSymbolTableRecord
100
AcDbLinetypeTableRecord
  2
DOTTED
 70
     0
  3
Dotted
 72
    65
 73
     2
 40
1.0
 49
0.0
 74
     0
 49
-1.0
 74
     0
  0
LTYPE
  5
41
330
5
100
AcDbSymbolTableRecord
100
AcDbLinetypeTableRecord
  2
DOT_CENTER
 70
     0
  3
Dot_Center
 72
    65
 73
     4
 40
14.0
 49
12.0
 74
     0
 49
-1.0
 74
     0
 49
0.0
 74
     0
 49
-1.0
 74
     0
  0
LTYPE
  5
42
330
5
100
AcDbSymbolTableRecord
100
AcDbLinetypeTableRecord
  2
LONG_DASHED
 70
     0
  3
Long_Dashed
 72
    65
 73
     2
 40
15.0
 49
10.0
 74
     0
 49
-5.0
 74
     0
  0
LTYPE
  5
43
330
5
100
AcDbSymbolTableRecord
100
AcDbLinetypeTableRecord
  2
DASH_CENTER
 70
     0
  3
Dash_Center
 72
    65
 73
     4
 40
14.0
 49
11.0
 74
     0
 49
-1.0
 74
     0
 49
1.0
 74
     0
 49
-1.0
 74
     0
  0
LTYPE
  5
44
330
5
100
AcDbSymbolTableRecord
100
AcDbLinetypeTableRecord
  2
PHANTOM
 70
     0
  3
Phantom
 72
    65
 73
     6
 40
13.0
 49
10.0
 74
     0
 49
-1.0
 74
     0
 49
0.0
 74
     0
 49
-1.0
 74
     0
 49
0.0
 74
     0
 49
-1.0
 74
     0
  0
LTYPE
  5
45
330
5
100
AcDbSymbolTableRecord
100
AcDbLinetypeTableRecord
  2
CENTER_DASH_DASH
 70
     0
  3
Center_Dash_Dash
 72
    65
 73
     6
 40
14.0
 49
9.0
 74
     0
 49
-1.0
 74
     0
 49
1.0
 74
     0
 49
-1.0
 74
     0
 49
1.0
 74
     0
 49
-1.0
 74
     0
  0
ENDTAB
  0
TABLE
  2
LAYER
  5
2
330
0
100
AcDbSymbolTable
 70
     2
  0
LAYER
  5
10
330
2
100
AcDbSymbolTableRecord
100
AcDbLayerTableRecord
  2
0
 70
     0
 62
     7
  6
Continuous
370
    -3
390
F
  0
LAYER
  5
46
330
2
100
AcDbSymbolTableRecord
100
AcDbLayerTableRecord
  2
1
 70
     0
 62
     7
  6
Continuous
370
    -3
390
F
  0
ENDTAB
  0
TABLE
  2
STYLE
  5
3
330
0
100
AcDbSymbolTable
 70
     5
  0
STYLE
  5
11
330
3
100
AcDbSymbolTableRecord
100
AcDbTextStyleTableRecord
  2
Standard
 70
     0
 40
0.0
 41
1.0
 50
0.0
 71
     0
 42
0.2
  3
txt
  4

  0
STYLE
  5
F5
330
3
100
AcDbSymbolTableRecord
100
AcDbTextStyleTableRecord
  2
CONVERTER_11
 70
     0
 40
0.0
 41
0.9
 50
0.0
 71
     0
 42
0.2
  3
txt.shx
  4

  0
STYLE
  5
23F
330
3
100
AcDbSymbolTableRecord
100
AcDbTextStyleTableRecord
  2
CONVERTER_12
 70
     0
 40
0.0
 41
0.81
 50
0.0
 71
     0
 42
0.2
  3
txt.shx
  4

  0
STYLE
  5
245
330
3
100
AcDbSymbolTableRecord
100
AcDbTextStyleTableRecord
  2
CONVERTER_13
 70
     0
 40
0.0
 41
0.855
 50
0.0
 71
     0
 42
0.2
  3
txt.shx
  4

  0
STYLE
  5
248
330
3
100
AcDbSymbolTableRecord
100
AcDbTextStyleTableRecord
  2
CONVERTER_14
 70
     0
 40
0.0
 41
0.72
 50
0.0
 71
     0
 42
0.2
  3
txt.shx
  4

  0
ENDTAB
  0
TABLE
  2
VIEW
  5
6
330
0
100
AcDbSymbolTable
 70
     0
  0
ENDTAB
  0
TABLE
  2
UCS
  5
7
330
0
100
AcDbSymbolTable
 70
     0
  0
ENDTAB
  0
TABLE
  2
APPID
  5
9
330
0
100
AcDbSymbolTable
 70
     1
  0
APPID
  5
12
330
9
100
AcDbSymbolTableRecord
100
AcDbRegAppTableRecord
  2
ACAD
 70
     0
  0
ENDTAB
  0
TABLE
  2
DIMSTYLE
  5
A
330
0
100
AcDbSymbolTable
 70
     3
100
AcDbDimStyleTable
  0
DIMSTYLE
105
27
330
A
100
AcDbSymbolTableRecord
100
AcDbDimStyleTableRecord
  2
Standard
 70
     0
178
     0
340
11
  0
DIMSTYLE
105
102
102
{ACAD_REACTORS
330
103
102
}
330
A
100
AcDbSymbolTableRecord
100
AcDbDimStyleTableRecord
  2
ME10_DIM_10
 70
     0
 41
3.5
 42
0.0
 44
2.0
 73
     0
 74
     0
 77
     1
 78
     8
140
3.5
147
2.0
172
     1
173
     1
174
     1
175
     1
176
     2
177
     2
271
     2
178
     3
271
     2
340
F5
  0
DIMSTYLE
105
13C
102
{ACAD_REACTORS
330
13D
102
}
330
A
100
AcDbSymbolTableRecord
100
AcDbDimStyleTableRecord
  2
ME10_DIM_11
 70
     0
 41
3.5
 42
0.0
 44
2.0
 73
     0
 74
     0
 77
     1
 78
     8
140
3.5
147
2.0
172
     1
173
     1
174
     1
175
     1
176
     2
177
     2
271
     2
178
     3
271
     2
340
F5
  0
ENDTAB
  0
TABLE
  2
BLOCK_RECORD
  5
1
330
0
100
AcDbSymbolTable
 70
    20
  0
BLOCK_RECORD
  5
1F
330
1
100
AcDbSymbolTableRecord
100
AcDbBlockTableRecord
  2
*Model_Space
340
22
  0
BLOCK_RECORD
  5
1B
330
1
100
AcDbSymbolTableRecord
100
AcDbBlockTableRecord
  2
*Paper_Space
340
1E
  0
BLOCK_RECORD
  5
23
330
1
100
AcDbSymbolTableRecord
100
AcDbBlockTableRecord
  2
*Paper_Space0
340
26
  0
BLOCK_RECORD
  5
47
330
1
100
AcDbSymbolTableRecord
100
AcDbBlockTableRecord
  2
D_DTME_6-select__1
340
0
102
{BLKREFS
331
4B
102
}
  0
BLOCK_RECORD
  5
4A
330
1
100
AcDbSymbolTableRecord
100
AcDbBlockTableRecord
  2
AllgSicht1
340
0
102
{BLKREFS
331
7D
102
}
  0
BLOCK_RECORD
  5
4E
330
1
100
AcDbSymbolTableRecord
100
AcDbBlockTableRecord
  2
D_DTME_6-select__2
340
0
102
{BLKREFS
331
52
102
}
  0
BLOCK_RECORD
  5
51
330
1
100
AcDbSymbolTableRecord
100
AcDbBlockTableRecord
  2
Drfsicht1
340
0
102
{BLKREFS
331
7E
102
}
  0
BLOCK_RECORD
  5
55
330
1
100
AcDbSymbolTableRecord
100
AcDbBlockTableRecord
  2
D_DTME_6-select__3
340
0
102
{BLKREFS
331
59
102
}
  0
BLOCK_RECORD
  5
58
330
1
100
AcDbSymbolTableRecord
100
AcDbBlockTableRecord
  2
Rckans1
340
0
102
{BLKREFS
331
7F
102
}
  0
BLOCK_RECORD
  5
5C
330
1
100
AcDbSymbolTableRecord
100
AcDbBlockTableRecord
  2
D_DTME_6-select__4
340
0
102
{BLKREFS
331
60
102
}
  0
BLOCK_RECORD
  5
5F
330
1
100
AcDbSymbolTableRecord
100
AcDbBlockTableRecord
  2
SA_Links1
340
0
102
{BLKREFS
331
80
102
}
  0
BLOCK_RECORD
  5
63
330
1
100
AcDbSymbolTableRecord
100
AcDbBlockTableRecord
  2
D_DTME_6-select__5
340
0
102
{BLKREFS
331
67
102
}
  0
BLOCK_RECORD
  5
66
330
1
100
AcDbSymbolTableRecord
100
AcDbBlockTableRecord
  2
SA_Rechts1
340
0
102
{BLKREFS
331
81
102
}
  0
BLOCK_RECORD
  5
6A
330
1
100
AcDbSymbolTableRecord
100
AcDbBlockTableRecord
  2
D_DTME_6-select__6
340
0
102
{BLKREFS
331
6E
102
}
  0
BLOCK_RECORD
  5
6D
330
1
100
AcDbSymbolTableRecord
100
AcDbBlockTableRecord
  2
Vordans1
340
0
102
{BLKREFS
331
82
102
}
  0
BLOCK_RECORD
  5
71
330
1
100
AcDbSymbolTableRecord
100
AcDbBlockTableRecord
  2
_rahmen
340
0
102
{BLKREFS
331
78
102
}
  0
BLOCK_RECORD
  5
74
330
1
100
AcDbSymbolTableRecord
100
AcDbBlockTableRecord
  2
_punkt
340
0
102
{BLKREFS
331
79
102
}
  0
BLOCK_RECORD
  5
77
330
1
100
AcDbSymbolTableRecord
100
AcDbBlockTableRecord
  2
A4I_CS
340
0
102
{BLKREFS
331
83
102
}
  0
BLOCK_RECORD
  5
7C
330
1
100
AcDbSymbolTableRecord
100
AcDbBlockTableRecord
  2
1
340
0
102
{BLKREFS
331
86
102
}
  0
BLOCK_RECORD
  5
F7
330
1
100
AcDbSymbolTableRecord
100
AcDbBlockTableRecord
  2
*D17
340
0
  0
BLOCK_RECORD
  5
132
330
1
100
AcDbSymbolTableRecord
100
AcDbBlockTableRecord
  2
*D18
340
0
  0
BLOCK_RECORD
  5
13E
330
1
100
AcDbSymbolTableRecord
100
AcDbBlockTableRecord
  2
*D19
340
0
102
{BLKREFS
331
147
102
}
  0
ENDTAB
  0
ENDSEC
  0
SECTION
  2
BLOCKS
  0
BLOCK
  5
20
330
1F
100
AcDbEntity
  8
0
100
AcDbBlockBegin
  2
*Model_Space
 70
     0
 10
0.0
 20
0.0
 30
0.0
  3
*Model_Space
  1

  0
ENDBLK
  5
21
330
1F
100
AcDbEntity
  8
0
100
AcDbBlockEnd
  0
BLOCK
  5
1C
330
1B
100
AcDbEntity
 67
     1
  8
0
100
AcDbBlockBegin
  2
*Paper_Space
 70
     0
 10
0.0
 20
0.0
 30
0.0
  3
*Paper_Space
  1

  0
ENDBLK
  5
1D
330
1B
100
AcDbEntity
 67
     1
  8
0
100
AcDbBlockEnd
  0
BLOCK
  5
24
330
23
100
AcDbEntity
  8
0
100
AcDbBlockBegin
  2
*Paper_Space0
 70
     0
 10
0.0
 20
0.0
 30
0.0
  3
*Paper_Space0
  1

  0
ENDBLK
  5
25
330
23
100
AcDbEntity
  8
0
100
AcDbBlockEnd
  0
BLOCK
  5
48
330
47
100
AcDbEntity
  8
0
100
AcDbBlockBegin
  2
D_DTME_6-select__1
 70
     0
 10
166.1353314665428
 20
776.6940793402194
 30
0.0
  3
D_DTME_6-select__1
  1

  0
LINE
  5
87
330
47
100
AcDbEntity
  8
0
  6
Continuous
 62
     7
100
AcDbLine
 10
166.1353314665705
 20
827.47203153181
 30
0.0
 11
166.1353314665428
 21
817.0427060041322
 31
0.0
  0
LINE
  5
88
330
47
100
AcDbEntity
  8
0
  6
Continuous
 62
     7
100
AcDbLine
 10
174.9434612928374
 20
829.0050438794924
 30
0.0
 11
167.2353314665717
 21
828.424659475974
 31
0.0
  0
LINE
  5
89
330
47
100
AcDbEntity
  8
0
  6
Continuous
 62
     7
100
AcDbLine
 10
234.129002701331
 20
779.2280903291024
 30
0.0
 11
251.0743197126705
 21
776.7244452648391
 31
0.0
  0
LINE
  5
8A
330
47
100
AcDbEntity
  8
0
  6
Continuous
 62
     7
100
AcDbLine
 10
213.7481396403822
 20
821.1387920746341
 30
0.0
 11
214.8481396403833
 21
822.0914200187982
 31
0.0
  0
LINE
  5
8B
330
47
100
AcDbEntity
  8
0
  6
Continuous
 62
     7
100
AcDbLine
 10
213.7481396403822
 20
821.1387920746341
 30
0.0
 11
223.1585370386279
 21
816.7629373786024
 31
0.0
  0
LINE
  5
8C
330
47
100
AcDbEntity
  8
0
  6
Continuous
 62
     7
100
AcDbLine
 10
214.8481396403833
 20
822.0914200187982
 30
0.0
 11
223.7482392840273
 21
817.9528548580909
 31
0.0
  0
LINE
  5
8D
330
47
100
AcDbEntity
  8
0
  6
Continuous
 62
     7
100
AcDbLine
 10
166.1353314666052
 20
805.7843757547273
 30
0.0
 11
166.1353314666002
 21
803.8791198663662
 31
0.0
  0
LINE
  5
8E
330
47
100
AcDbEntity
  8
0
  6
Continuous
 62
     7
100
AcDbLine
 10
199.3055438493902
 20
826.268008879425
 30
0.0
 11
199.4966282335773
 21
825.1291541750504
 31
0.0
  0
LINE
  5
8F
330
47
100
AcDbEntity
  8
0
  6
Continuous
 62
     7
100
AcDbLine
 10
173.8434612928362
 20
828.0524159353284
 30
0.0
 11
174.9434612928374
 21
829.0050438794924
 31
0.0
  0
LINE
  5
90
330
47
100
AcDbEntity
  8
0
  6
Continuous
 62
     7
100
AcDbLine
 10
173.8434612928362
 20
828.0524159353284
 30
0.0
 11
166.1353314665705
 21
827.47203153181
 31
0.0
  0
LINE
  5
91
330
47
100
AcDbEntity
  8
0
  6
Continuous
 62
     7
100
AcDbLine
 10
198.2055438493891
 20
825.3153809352609
 30
0.0
 11
198.3966282335761
 21
824.1765262308863
 31
0.0
  0
LINE
  5
92
330
47
100
AcDbEntity
  8
0
  6
Continuous
 62
     7
100
AcDbLine
 10
198.2055438493891
 20
825.3153809352609
 30
0.0
 11
173.8434612928362
 21
828.0524159353284
 31
0.0
  0
LINE
  5
93
330
47
100
AcDbEntity
  8
0
  6
Continuous
 62
     7
100
AcDbLine
 10
199.3055438493902
 20
826.268008879425
 30
0.0
 11
198.2055438493891
 21
825.3153809352609
 31
0.0
  0
LINE
  5
94
330
47
100
AcDbEntity
  8
0
  6
Continuous
 62
     7
100
AcDbLine
 10
199.3055438493902
 20
826.268008879425
 30
0.0
 11
174.9434612928374
 21
829.0050438794924
 31
0.0
  0
LINE
  5
95
330
47
100
AcDbEntity
  8
0
  6
Continuous
 62
     7
100
AcDbLine
 10
199.4966282335773
 20
825.1291541750504
 30
0.0
 11
198.3966282335761
 21
824.1765262308863
 31
0.0
  0
LINE
  5
96
330
47
100
AcDbEntity
  8
0
  6
Continuous
 62
     7
100
AcDbLine
 10
167.2353314665717
 20
828.424659475974
 30
0.0
 11
166.1353314665705
 21
827.47203153181
 31
0.0
  0
LINE
  5
97
330
47
100
AcDbEntity
  8
0
  6
Continuous
 62
     7
100
AcDbLine
 10
224.4089207718133
 20
818.5250218103237
 30
0.0
 11
223.3089207718121
 21
817.5723938661596
 31
0.0
  0
LINE
  5
98
330
47
100
AcDbEntity
  8
0
  6
Continuous
 62
     7
100
AcDbLine
 10
223.1585370386279
 20
816.7629373786024
 30
0.0
 11
223.3089207718121
 21
817.5723938661596
 31
0.0
  0
LINE
  5
99
330
47
100
AcDbEntity
  8
0
  6
Continuous
 62
     7
100
AcDbLine
 10
213.6274443686598
 20
820.1810923063899
 30
0.0
 11
213.7481396403822
 21
821.1387920746341
 31
0.0
  0
LINE
  5
9A
330
47
100
AcDbEntity
  8
0
  6
Continuous
 62
     7
100
AcDbLine
 10
244.8565369584457
 20
807.5527067596257
 30
0.0
 11
223.3089207718121
 21
817.5723938661596
 31
0.0
  0
LINE
  5
9B
330
47
100
AcDbEntity
  8
0
  6
Continuous
 62
     7
100
AcDbLine
 10
245.9565369584469
 20
808.5053347037897
 30
0.0
 11
224.4089207718133
 21
818.5250218103237
 31
0.0
  0
LINE
  5
9C
330
47
100
AcDbEntity
  8
0
  6
Continuous
 62
     7
100
AcDbLine
 10
253.6646667850437
 20
792.8998638020217
 30
0.0
 11
253.6646667850062
 21
803.4746594699311
 31
0.0
  0
LINE
  5
9D
330
47
100
AcDbEntity
  8
0
  6
Continuous
 62
     7
100
AcDbLine
 10
252.5646667850425
 20
791.9472358578578
 30
0.0
 11
253.6646667850437
 21
792.8998638020217
 31
0.0
  0
LINE
  5
9E
330
47
100
AcDbEntity
  8
0
  6
Continuous
 62
     7
100
AcDbLine
 10
253.2419233085243
 20
777.9500924694107
 30
0.0
 11
252.1419233085301
 21
776.9974645252528
 31
0.0
  0
LINE
  5
9F
330
47
100
AcDbEntity
  8
0
  6
Continuous
 62
     2
100
AcDbLine
 10
253.4432182492253
 20
779.8732734954124
 30
0.0
 11
252.3432182492241
 21
778.9206455512484
 31
0.0
  0
LINE
  5
A0
330
47
100
AcDbEntity
  8
0
  6
Continuous
 62
     7
100
AcDbLine
 10
252.5646667850425
 20
791.9472358578578
 30
0.0
 11
252.564666785005
 21
802.5220315257671
 31
0.0
  0
LINE
  5
A1
330
47
100
AcDbEntity
  8
0
  6
Continuous
 62
     7
100
AcDbLine
 10
252.564666785005
 20
802.5220315257671
 30
0.0
 11
244.8565369584457
 21
807.5527067596257
 31
0.0
  0
LINE
  5
A2
330
47
100
AcDbEntity
  8
0
  6
Continuous
 62
     7
100
AcDbLine
 10
253.6646667850062
 20
803.4746594699311
 30
0.0
 11
245.9565369584469
 21
808.5053347037897
 31
0.0
  0
LINE
  5
A3
330
47
100
AcDbEntity
  8
0
  6
Continuous
 62
     7
100
AcDbLine
 10
244.8565369584457
 20
807.5527067596257
 30
0.0
 11
245.9565369584469
 21
808.5053347037897
 31
0.0
  0
LINE
  5
A4
330
47
100
AcDbEntity
  8
0
  6
Continuous
 62
     7
100
AcDbLine
 10
166.1353314666002
 20
803.8791198663662
 30
0.0
 11
169.7876036946973
 21
802.8247996893416
 31
0.0
  0
LINE
  5
A5
330
47
100
AcDbEntity
  8
0
  6
Continuous
 62
     7
100
AcDbLine
 10
253.6646667850062
 20
803.4746594699311
 30
0.0
 11
252.564666785005
 21
802.5220315257671
 31
0.0
  0
LINE
  5
A6
330
47
100
AcDbEntity
  8
0
  6
Continuous
 62
     7
100
AcDbLine
 10
234.129002701331
 20
779.2280903291024
 30
0.0
 11
168.4367639568007
 21
798.1918061905408
 31
0.0
  0
SPLINE
  5
A7
330
47
100
AcDbEntity
  8
0
  6
Continuous
 62
     7
100
AcDbSpline
210
0.0
220
0.0
230
1.0
 70
     8
 71
     3
 72
    11
 73
     7
 74
     5
 42
0.000000001
 43
0.0000000001
 44
0.00000001
 40
0.0
 40
0.0
 40
0.0
 40
0.0
 40
4.29953276892499
 40
8.424064310707655
 40
12.34432103595554
 40
16.05709314770897
 40
16.05709314770897
 40
16.05709314770897
 40
16.05709314770897
 10
213.6274443686598
 20
820.1810923063899
 30
0.0
 10
212.39273213676
 20
820.915611441246
 30
0.0
 10
209.9735633955217
 20
822.3547530191614
 30
0.0
 10
206.0684039983292
 20
823.715022882097
 30
0.0
 10
202.182931286808
 20
824.4446192813712
 30
0.0
 10
199.6356487703467
 20
824.2642563489708
 30
0.0
 10
198.3966282335761
 20
824.1765262308863
 30
0.0
 11
213.6274443686598
 21
820.1810923063899
 31
0.0
 11
209.8592762538079
 21
822.2515731903062
 31
0.0
 11
205.9739369259784
 21
823.6357331379324
 31
0.0
 11
202.1078159833522
 21
824.2849801367419
 31
0.0
 11
198.3966282335761
 21
824.1765262308863
 31
0.0
  0
SPLINE
  5
A8
330
47
100
AcDbEntity
  8
0
  6
Continuous
 62
     7
100
AcDbSpline
210
0.0
220
0.0
230
1.0
 70
     8
 71
     3
 72
    11
 73
     7
 74
     5
 42
0.000000001
 43
0.0000000001
 44
0.00000001
 40
0.0
 40
0.0
 40
0.0
 40
0.0
 40
4.113962276366623
 40
8.061899296126448
 40
11.81975102060993
 40
15.38612829198441
 40
15.38612829198441
 40
15.38612829198441
 40
15.38612829198441
 10
214.1595012907852
 20
821.4950417140259
 30
0.0
 10
212.9631749586984
 20
822.1717785434332
 30
0.0
 10
210.6188018716159
 20
823.4979414364974
 30
0.0
 10
206.8601458989244
 20
824.7398613121646
 30
0.0
 10
203.1294370232412
 20
825.3957798175604
 30
0.0
 10
200.68627428078
 20
825.2164668242904
 30
0.0
 10
199.4966282335773
 20
825.1291541750504
 30
0.0
 11
214.1595012907852
 21
821.4950417140259
 31
0.0
 11
210.5134175073667
 21
823.400496687813
 31
0.0
 11
206.7734681591374
 21
824.6650067105113
 31
0.0
 11
203.06104047697
 21
825.2475273566808
 31
0.0
 11
199.4966282335773
 21
825.1291541750504
 31
0.0
  0
SPLINE
  5
A9
330
47
100
AcDbEntity
  8
0
  6
Continuous
 62
     7
100
AcDbSpline
210
0.0
220
0.0
230
1.0
 70
     8
 71
     3
 72
    13
 73
     9
 74
     7
 42
0.000000001
 43
0.0000000001
 44
0.00000001
 40
0.0
 40
0.0
 40
0.0
 40
0.0
 40
1.750351784465769
 40
3.568197722529851
 40
5.46545337183373
 40
7.446017246243056
 40
9.506381378939084
 40
11.63673440903525
 40
11.63673440903525
 40
11.63673440903525
 40
11.63673440903525
 10
166.1353314666052
 20
805.7843757547273
 30
0.0
 10
166.3915961717091
 20
806.31033078265
 30
0.0
 10
166.9140072217451
 20
807.3825218471891
 30
0.0
 10
167.323670486569
 20
809.1721805507167
 30
0.0
 10
167.4683773768971
 20
811.0709012061845
 30
0.0
 10
167.3127057950242
 20
813.0507113565388
 30
0.0
 10
166.8893002132566
 20
815.072208097264
 30
0.0
 10
166.389437113867
 20
816.3786007104967
 30
0.0
 10
166.1353314665428
 20
817.0427060041322
 30
0.0
 11
166.1353314666052
 21
805.7843757547273
 31
0.0
 11
166.8427749224322
 21
807.3853926606362
 31
0.0
 11
167.2736451623092
 21
809.1514375921097
 31
0.0
 11
167.4183429298987
 21
811.0431673725739
 31
0.0
 11
167.2736451622877
 21
813.0184384481119
 31
0.0
 11
166.8427749223897
 21
815.033246428566
 31
0.0
 11
166.1353314665428
 21
817.0427060041322
 31
0.0
  0
SPLINE
  5
AA
330
47
100
AcDbEntity
  8
0
  6
Continuous
 62
     7
100
AcDbSpline
210
0.0
220
0.0
230
1.0
 70
     8
 71
     3
 72
    13
 73
     9
 74
     7
 42
0.000000001
 43
0.0000000001
 44
0.00000001
 40
0.0
 40
0.0
 40
0.0
 40
0.0
 40
0.3069373916393309
 40
0.6232632539414338
 40
0.9561340971505268
 40
1.309216640532765
 40
1.682546929566912
 40
2.07307120740244
 40
2.07307120740244
 40
2.07307120740244
 40
2.07307120740244
 10
253.2419233085243
 20
777.9500924694107
 30
0.0
 10
253.3140898043634
 20
778.0235005417206
 30
0.0
 10
253.460630183428
 20
778.1725620706686
 30
0.0
 10
253.5981268342198
 20
778.4661545259537
 30
0.0
 10
253.6692153027589
 20
778.7948307643858
 30
0.0
 10
253.6657475320418
 20
779.1503112191234
 30
0.0
 10
253.5949908703765
 20
779.5186679400849
 30
0.0
 10
253.4945626572817
 20
779.7533110783427
 30
0.0
 10
253.4432182492253
 20
779.8732734954124
 30
0.0
 11
253.2419233085243
 21
777.9500924694107
 31
0.0
 11
253.4446201753391
 21
778.1805800927975
 31
0.0
 11
253.5845147626396
 21
778.4642904343059
 31
0.0
 11
253.6557960513129
 21
778.789439596821
 31
0.0
 11
253.6555037049973
 21
779.1425220208882
 31
0.0
 11
253.5836494620454
 21
779.5088722263604
 31
0.0
 11
253.4432182492253
 21
779.8732734954124
 31
0.0
  0
SPLINE
  5
AB
330
47
100
AcDbEntity
  8
0
  6
Continuous
 62
     7
100
AcDbSpline
210
0.0
220
0.0
230
1.0
 70
     8
 71
     3
 72
    11
 73
     7
 74
     5
 42
0.000000001
 43
0.0000000001
 44
0.00000001
 40
0.0
 40
0.0
 40
0.0
 40
0.0
 40
0.3023984870440077
 40
0.5898792202751829
 40
0.8656920142553942
 40
1.135067808505315
 40
1.135067808505315
 40
1.135067808505315
 40
1.135067808505315
 10
251.0743197126705
 20
776.7244452648391
 30
0.0
 10
251.175005244921
 20
776.7146321044809
 30
0.0
 10
251.3714093473584
 20
776.6954898957804
 30
0.0
 10
251.6590159742105
 20
776.7392040934717
 30
0.0
 10
251.9236782228939
 20
776.8336241121556
 30
0.0
 10
252.0697498347626
 20
776.9432826266914
 30
0.0
 10
252.1419233085301
 20
776.9974645252528
 30
0.0
 11
251.0743197126705
 21
776.7244452648391
 31
0.0
 11
251.3762632909996
 21
776.7078645296659
 31
0.0
 11
251.660782663406
 21
776.7490215443461
 31
0.0
 11
251.9187587326503
 21
776.8465973934663
 31
0.0
 11
252.1419233085301
 21
776.9974645252528
 31
0.0
  0
SPLINE
  5
AC
330
47
100
AcDbEntity
  8
0
  6
Continuous
 62
     7
100
AcDbSpline
210
0.0
220
0.0
230
1.0
 70
     8
 71
     3
 72
    13
 73
     9
 74
     7
 42
0.000000001
 43
0.0000000001
 44
0.00000001
 40
0.0
 40
0.0
 40
0.0
 40
0.0
 40
0.3069373916394351
 40
0.623263253941436
 40
0.9561340971505352
 40
1.309216640532773
 40
1.682546929566309
 40
2.073071207399165
 40
2.073071207399165
 40
2.073071207399165
 40
2.073071207399165
 10
252.1419233085301
 20
776.9974645252528
 30
0.0
 10
252.2140898043692
 20
777.0708725975628
 30
0.0
 10
252.3606301834336
 20
777.2199341265105
 30
0.0
 10
252.4981268342256
 20
777.5135265817958
 30
0.0
 10
252.5692153027648
 20
777.8422028202278
 30
0.0
 10
252.5657475320476
 20
778.1976832749654
 30
0.0
 10
252.494990870383
 20
778.5660399959261
 30
0.0
 10
252.3945626572831
 20
778.8006831341805
 30
0.0
 10
252.3432182492241
 20
778.9206455512484
 30
0.0
 11
252.1419233085301
 21
776.9974645252528
 31
0.0
 11
252.3446201753449
 21
777.2279521486397
 31
0.0
 11
252.4845147626454
 21
777.511662490148
 31
0.0
 11
252.5557960513188
 21
777.8368116526631
 31
0.0
 11
252.5555037050031
 21
778.1898940767303
 31
0.0
 11
252.4836494620504
 21
778.5562442822016
 31
0.0
 11
252.3432182492241
 21
778.9206455512484
 31
0.0
  0
SPLINE
  5
AD
330
47
100
AcDbEntity
  8
0
  6
Continuous
 62
     7
100
AcDbSpline
210
0.0
220
0.0
230
1.0
 70
     8
 71
     3
 72
    13
 73
     9
 74
     7
 42
0.000000001
 43
0.0000000001
 44
0.00000001
 40
0.0
 40
0.0
 40
0.0
 40
0.0
 40
2.026937382565887
 40
4.135840794006154
 40
6.351126160695747
 40
8.681808129369049
 40
11.12248027301275
 40
13.65575928290131
 40
13.65575928290131
 40
13.65575928290131
 40
13.65575928290131
 10
252.5646667850425
 20
791.9472358578578
 30
0.0
 10
252.2009366970445
 20
791.3745462838874
 30
0.0
 10
251.4587678844822
 20
790.206008500101
 30
0.0
 10
250.851738379655
 20
788.1524524794493
 30
0.0
 10
250.6138715170859
 20
785.9375052038945
 30
0.0
 10
250.7926983134638
 20
783.6046460221372
 30
0.0
 10
251.3428192219694
 20
781.2192299173742
 30
0.0
 10
252.0056383647896
 20
779.6962918797923
 30
0.0
 10
252.3432182492241
 20
778.9206455512484
 30
0.0
 11
252.5646667850425
 21
791.9472358578578
 31
0.0
 11
251.5567914443152
 21
790.1886391273621
 31
0.0
 11
250.9234470698708
 21
788.1770853708963
 31
0.0
 11
250.6842129920302
 21
785.9747556221498
 31
0.0
 11
250.8464832350068
 21
783.6497294256708
 31
0.0
 11
251.4052429065893
 21
781.2738783897204
 31
0.0
 11
252.3432182492241
 21
778.9206455512484
 31
0.0
  0
SPLINE
  5
AE
330
47
100
AcDbEntity
  8
0
  6
Continuous
 62
     7
100
AcDbSpline
210
0.0
220
0.0
230
1.0
 70
     8
 71
     3
 72
    13
 73
     9
 74
     7
 42
0.000000001
 43
0.0000000001
 44
0.00000001
 40
0.0
 40
0.0
 40
0.0
 40
0.0
 40
2.026937382565915
 40
4.135840794006191
 40
6.351126160695781
 40
8.681808129368976
 40
11.12248027301279
 40
13.65575928290135
 40
13.65575928290135
 40
13.65575928290135
 40
13.65575928290135
 10
253.6646667850437
 20
792.8998638020217
 30
0.0
 10
253.3009366970457
 20
792.3271742280518
 30
0.0
 10
252.5587678844834
 20
791.1586364442651
 30
0.0
 10
251.9517383796561
 20
789.1050804236133
 30
0.0
 10
251.7138715170869
 20
786.8901331480582
 30
0.0
 10
251.8926983134652
 20
784.5572739663016
 30
0.0
 10
252.4428192219705
 20
782.1718578615381
 30
0.0
 10
253.1056383647908
 20
780.6489198239564
 30
0.0
 10
253.4432182492253
 20
779.8732734954124
 30
0.0
 11
253.6646667850437
 21
792.8998638020217
 31
0.0
 11
252.6567914443163
 21
791.141267071526
 31
0.0
 11
252.0234470698719
 21
789.1297133150603
 31
0.0
 11
251.7842129920313
 21
786.9273835663138
 31
0.0
 11
251.946483235008
 21
784.6023573698349
 31
0.0
 11
252.5052429065905
 21
782.2265063338843
 31
0.0
 11
253.4432182492253
 21
779.8732734954124
 31
0.0
  0
SPLINE
  5
AF
330
47
100
AcDbEntity
  8
0
  6
Continuous
 62
     7
100
AcDbSpline
210
0.0
220
0.0
230
1.0
 70
     8
 71
     3
 72
     9
 73
     5
 74
     3
 42
0.000000001
 43
0.0000000001
 44
0.00000001
 40
0.0
 40
0.0
 40
0.0
 40
0.0
 40
2.386504712339056
 40
4.83306086227697
 40
4.83306086227697
 40
4.83306086227697
 40
4.83306086227697
 10
169.7876036946973
 20
802.8247996893416
 30
0.0
 10
169.5027131604861
 20
802.0805113890694
 30
0.0
 10
168.9257634320829
 20
800.5732063121812
 30
0.0
 10
168.6011084029939
 20
798.9921544939932
 30
0.0
 10
168.4367639568007
 20
798.1918061905408
 30
0.0
 11
169.7876036946973
 21
802.8247996893416
 31
0.0
 11
168.9944481156594
 21
800.5739534102605
 31
0.0
 11
168.4367639568007
 21
798.1918061905408
 31
0.0
  0
ENDBLK
  5
49
330
47
100
AcDbEntity
  8
0
100
AcDbBlockEnd
  0
BLOCK
  5
4C
330
4A
100
AcDbEntity
  8
0
100
AcDbBlockBegin
  2
AllgSicht1
 70
     0
 10
209.8999999999995
 20
805.00000000001
 30
0.0
  3
AllgSicht1
  1

  0
INSERT
  5
4B
330
4A
100
AcDbEntity
  8
0
100
AcDbBlockReference
  2
D_DTME_6-select__1
 10
166.1353314665428
 20
776.6940793402194
 30
0.0
  0
ENDBLK
  5
4D
330
4A
100
AcDbEntity
  8
0
100
AcDbBlockEnd
  0
BLOCK
  5
4F
330
4E
100
AcDbEntity
  8
0
100
AcDbBlockBegin
  2
D_DTME_6-select__2
 70
     0
 10
3.19999934626596
 20
802.8508295818223
 30
0.0
  3
D_DTME_6-select__2
  1

  0
LINE
  5
B0
330
4E
100
AcDbEntity
  8
0
  6
Continuous
 62
     7
100
AcDbLine
 10
102.9999993702592
 20
805.0508295818223
 30
0.0
 11
102.9999993702579
 21
802.8508295818223
 31
0.0
  0
LINE
  5
B1
330
4E
100
AcDbEntity
  8
0
  6
Continuous
 62
     7
100
AcDbLine
 10
102.9999993702592
 20
805.0508295818223
 30
0.0
 11
94.0994177096323
 21
805.0508295818253
 31
0.0
  0
LINE
  5
B2
330
4E
100
AcDbEntity
  8
0
  6
Continuous
 62
     7
100
AcDbLine
 10
69.0447255204585
 20
805.0508295818378
 30
0.0
 11
69.21837369813032
 21
805.0508295818369
 31
0.0
  0
LINE
  5
B3
330
4E
100
AcDbEntity
  8
0
  6
Continuous
 62
     7
100
AcDbLine
 10
94.0994177096323
 20
805.0508295818253
 30
0.0
 11
69.21837369813032
 21
805.0508295818369
 31
0.0
  0
LINE
  5
B4
330
4E
100
AcDbEntity
  8
0
  6
Continuous
 62
     7
100
AcDbLine
 10
12.10058100655665
 20
802.8508295818747
 30
0.0
 11
3.19999934626596
 21
802.8508295818825
 31
0.0
  0
LINE
  5
B5
330
4E
100
AcDbEntity
  8
0
  6
Continuous
 62
     7
100
AcDbLine
 10
69.0447255204571
 20
802.8508295818377
 30
0.0
 11
69.21837369812901
 21
802.8508295818369
 31
0.0
  0
LINE
  5
B6
330
4E
100
AcDbEntity
  8
0
  6
Continuous
 62
     7
100
AcDbLine
 10
58.17853457833721
 20
802.8508295818428
 30
0.0
 11
69.0447255204571
 21
802.8508295818377
 31
0.0
  0
LINE
  5
B7
330
4E
100
AcDbEntity
  8
0
  6
Continuous
 62
     7
100
AcDbLine
 10
40.23149085065991
 20
802.850829581854
 30
0.0
 11
12.10058100655665
 21
802.8508295818747
 31
0.0
  0
LINE
  5
B8
330
4E
100
AcDbEntity
  8
0
  6
Continuous
 62
     7
100
AcDbLine
 10
58.03916768309901
 20
802.8508295818438
 30
0.0
 11
40.45213609195611
 21
802.8508295818548
 31
0.0
  0
LINE
  5
B9
330
4E
100
AcDbEntity
  8
0
  6
Continuous
 62
     7
100
AcDbLine
 10
58.17853457833851
 20
805.0508295818429
 30
0.0
 11
69.0447255204585
 21
805.0508295818378
 31
0.0
  0
LINE
  5
BA
330
4E
100
AcDbEntity
  8
0
  6
Continuous
 62
     7
100
AcDbLine
 10
12.10058100655796
 20
805.0508295818747
 30
0.0
 11
3.19999934626726
 21
805.0508295818826
 31
0.0
  0
LINE
  5
BB
330
4E
100
AcDbEntity
  8
0
  6
Continuous
 62
     7
100
AcDbLine
 10
69.21837369813032
 20
805.0508295818369
 30
0.0
 11
69.21837369812901
 21
802.8508295818369
 31
0.0
  0
LINE
  5
BC
330
4E
100
AcDbEntity
  8
0
  6
Continuous
 62
     7
100
AcDbLine
 10
58.0391676831003
 20
805.0508295818438
 30
0.0
 11
58.17853457833851
 21
805.0508295818429
 31
0.0
  0
LINE
  5
BD
330
4E
100
AcDbEntity
  8
0
  6
Continuous
 62
     7
100
AcDbLine
 10
40.2314908506613
 20
805.0508295818539
 30
0.0
 11
40.45213609195751
 21
805.0508295818548
 31
0.0
  0
LINE
  5
BE
330
4E
100
AcDbEntity
  8
0
  6
Continuous
 62
     7
100
AcDbLine
 10
40.23149085065991
 20
802.850829581854
 30
0.0
 11
40.45213609195611
 21
802.8508295818548
 31
0.0
  0
LINE
  5
BF
330
4E
100
AcDbEntity
  8
0
  6
Continuous
 62
     7
100
AcDbLine
 10
40.45213609195751
 20
805.0508295818548
 30
0.0
 11
40.45213609195611
 21
802.8508295818548
 31
0.0
  0
LINE
  5
C0
330
4E
100
AcDbEntity
  8
0
  6
Continuous
 62
     7
100
AcDbLine
 10
12.10058100655665
 20
802.8508295818747
 30
0.0
 11
12.10058100655796
 21
805.0508295818747
 31
0.0
  0
LINE
  5
C1
330
4E
100
AcDbEntity
  8
0
  6
Continuous
 62
     7
100
AcDbLine
 10
58.03916768309901
 20
802.8508295818438
 30
0.0
 11
58.17853457833721
 21
802.8508295818428
 31
0.0
  0
LINE
  5
C2
330
4E
100
AcDbEntity
  8
0
  6
Continuous
 62
     7
100
AcDbLine
 10
40.2314908506613
 20
805.0508295818539
 30
0.0
 11
40.23149085065991
 21
802.850829581854
 31
0.0
  0
LINE
  5
C3
330
4E
100
AcDbEntity
  8
0
  6
Continuous
 62
     7
100
AcDbLine
 10
58.17853457833721
 20
802.8508295818428
 30
0.0
 11
58.17853457833851
 21
805.0508295818429
 31
0.0
  0
LINE
  5
C4
330
4E
100
AcDbEntity
  8
0
  6
Continuous
 62
     7
100
AcDbLine
 10
58.0391676831003
 20
805.0508295818438
 30
0.0
 11
58.03916768309901
 21
802.8508295818438
 31
0.0
  0
LINE
  5
C5
330
4E
100
AcDbEntity
  8
0
  6
Continuous
 62
     7
100
AcDbLine
 10
58.0391676831003
 20
805.0508295818438
 30
0.0
 11
40.45213609195751
 21
805.0508295818548
 31
0.0
  0
LINE
  5
C6
330
4E
100
AcDbEntity
  8
0
  6
Continuous
 62
     7
100
AcDbLine
 10
102.9999993702579
 20
802.8508295818223
 30
0.0
 11
94.099417709631
 21
802.8508295818252
 31
0.0
  0
LINE
  5
C7
330
4E
100
AcDbEntity
  8
0
  6
Continuous
 62
     7
100
AcDbLine
 10
94.099417709631
 20
802.8508295818252
 30
0.0
 11
69.21837369812901
 21
802.8508295818369
 31
0.0
  0
LINE
  5
C8
330
4E
100
AcDbEntity
  8
0
  6
Continuous
 62
     7
100
AcDbLine
 10
3.19999934626726
 20
805.0508295818826
 30
0.0
 11
3.19999934626596
 21
802.8508295818825
 31
0.0
  0
LINE
  5
C9
330
4E
100
AcDbEntity
  8
0
  6
Continuous
 62
     7
100
AcDbLine
 10
69.0447255204585
 20
805.0508295818378
 30
0.0
 11
69.0447255204571
 21
802.8508295818377
 31
0.0
  0
LINE
  5
CA
330
4E
100
AcDbEntity
  8
0
  6
Continuous
 62
     7
100
AcDbLine
 10
94.099417709631
 20
802.8508295818252
 30
0.0
 11
94.0994177096323
 21
805.0508295818253
 31
0.0
  0
LINE
  5
CB
330
4E
100
AcDbEntity
  8
0
  6
Continuous
 62
     7
100
AcDbLine
 10
40.2314908506613
 20
805.0508295818539
 30
0.0
 11
12.10058100655796
 21
805.0508295818747
 31
0.0
  0
ENDBLK
  5
50
330
4E
100
AcDbEntity
  8
0
100
AcDbBlockEnd
  0
BLOCK
  5
53
330
51
100
AcDbEntity
  8
0
100
AcDbBlockBegin
  2
Drfsicht1
 70
     0
 10
53.10000038147211
 20
803.9508295580238
 30
0.0
  3
Drfsicht1
  1

  0
INSERT
  5
52
330
51
100
AcDbEntity
  8
0
100
AcDbBlockReference
  2
D_DTME_6-select__2
 10
3.19999934626596
 20
802.8508295818223
 30
0.0
  0
ENDBLK
  5
54
330
51
100
AcDbEntity
  8
0
100
AcDbBlockEnd
  0
BLOCK
  5
56
330
55
100
AcDbEntity
  8
0
100
AcDbBlockBegin
  2
D_DTME_6-select__3
 70
     0
 10
155.0000006297045
 20
854.0508295791728
 30
0.0
  3
D_DTME_6-select__3
  1

  0
LINE
  5
CC
330
55
100
AcDbEntity
  8
0
  6
Continuous
 62
     7
100
AcDbLine
 10
199.9608323169014
 20
894.5054302330473
 30
0.0
 11
199.8214654216632
 21
895.651518428286
 31
0.0
  0
LINE
  5
CD
330
55
100
AcDbEntity
  8
0
  6
Continuous
 62
     7
100
AcDbLine
 10
199.8214654216632
 20
895.651518428286
 30
0.0
 11
188.9552744795432
 21
893.7355157876606
 31
0.0
  0
LINE
  5
CE
330
55
100
AcDbEntity
  8
0
  6
Continuous
 62
     7
100
AcDbLine
 10
217.7685091493404
 20
895.2933625705688
 30
0.0
 11
217.5478639080442
 21
894.0420212250201
 31
0.0
  0
LINE
  5
CF
330
55
100
AcDbEntity
  8
0
  6
Continuous
 62
     7
100
AcDbLine
 10
176.2876718724676
 20
854.0508295791728
 30
0.0
 11
252.1425353182357
 21
854.0508295791728
 31
0.0
  0
LINE
  5
D0
330
55
100
AcDbEntity
  8
0
  6
Continuous
 62
     7
100
AcDbLine
 10
156.7209051965529
 20
856.8083082793466
 30
0.0
 11
176.2876718724676
 21
854.0508295791728
 31
0.0
  0
LINE
  5
D1
330
55
100
AcDbEntity
  8
0
  6
Continuous
 62
     7
100
AcDbLine
 10
155.0000006297045
 20
874.882855130207
 30
0.0
 11
155.0000006297424
 21
887.0935773811863
 31
0.0
  0
LINE
  5
D2
330
55
100
AcDbEntity
  8
0
  6
Continuous
 62
     7
100
AcDbLine
 10
155.0000006297424
 20
887.0935773811863
 30
0.0
 11
163.9005822903694
 21
890.3331241732787
 31
0.0
  0
LINE
  5
D3
330
55
100
AcDbEntity
  8
0
  6
Continuous
 62
     7
100
AcDbLine
 10
188.9552744795432
 20
893.7355157876606
 30
0.0
 11
188.7816263018714
 21
894.7203235406995
 31
0.0
  0
LINE
  5
D4
330
55
100
AcDbEntity
  8
0
  6
Continuous
 62
     7
100
AcDbLine
 10
163.9005822903694
 20
890.3331241732787
 30
0.0
 11
188.7816263018714
 21
894.7203235406995
 31
0.0
  0
LINE
  5
D5
330
55
100
AcDbEntity
  8
0
  6
Continuous
 62
     7
100
AcDbLine
 10
254.8000006537121
 20
859.8508295791819
 30
0.0
 11
250.5827199456193
 21
859.8508295791817
 31
0.0
  0
LINE
  5
D6
330
55
100
AcDbEntity
  8
0
  6
Continuous
 62
     7
100
AcDbLine
 10
254.8000006537053
 20
862.0508295792256
 30
0.0
 11
254.8000006537121
 21
859.8508295791819
 31
0.0
  0
LINE
  5
D7
330
55
100
AcDbEntity
  8
0
  6
Continuous
 62
     7
100
AcDbLine
 10
254.8000006537344
 20
887.0935773812079
 30
0.0
 11
254.8000006537718
 21
875.0508295794506
 31
0.0
  0
LINE
  5
D8
330
55
100
AcDbEntity
  8
0
  6
Continuous
 62
     7
100
AcDbLine
 10
245.8994189934437
 20
890.333124173178
 30
0.0
 11
254.8000006537344
 21
887.0935773812079
 31
0.0
  0
LINE
  5
D9
330
55
100
AcDbEntity
  8
0
  6
Continuous
 62
     7
100
AcDbLine
 10
217.7685091493404
 20
895.2933625705688
 30
0.0
 11
245.8994189934437
 21
890.333124173178
 31
0.0
  0
ARC
  5
DA
330
55
100
AcDbEntity
  8
0
  6
Continuous
 62
     7
100
AcDbCircle
 10
208.1661735550364
 20
871.9516639141867
 30
0.0
 40
24.0000000000002
100
AcDbArc
 50
66.9892540267124
 51
109.9920173218236
  0
ARC
  5
DB
330
55
100
AcDbEntity
  8
0
  6
Continuous
 62
     7
100
AcDbCircle
 10
220.500000653641
 20
848.65082957918
 30
0.0
 40
32.1
100
AcDbArc
 50
9.68459207513933
 51
20.42063938546996
  0
ARC
  5
DC
330
55
100
AcDbEntity
  8
0
  6
Continuous
 62
     7
100
AcDbCircle
 10
157.0000006416744
 20
858.7887389730374
 30
0.0
 40
1.999999999999931
100
AcDbArc
 50
150.7090586169478
 51
261.9783242452741
  0
ARC
  5
DD
330
55
100
AcDbEntity
  8
0
  6
Continuous
 62
     7
100
AcDbCircle
 10
142.1735078600178
 20
867.1058966483132
 30
0.0
 40
14.99999999999755
100
AcDbArc
 50
330.7090586169471
 51
31.22926916038593
  0
ARC
  5
DE
330
55
100
AcDbEntity
  8
0
  6
Continuous
 62
     7
100
AcDbCircle
 10
268.3185064882802
 20
868.550829579269
 30
0.0
 40
14.99999999999993
100
AcDbArc
 50
154.3207113797735
 51
205.6792886196409
  0
ENDBLK
  5
57
330
55
100
AcDbEntity
  8
0
100
AcDbBlockEnd
  0
BLOCK
  5
5A
330
58
100
AcDbEntity
  8
0
100
AcDbBlockBegin
  2
Rckans1
 70
     0
 10
204.8999996185296
 20
875.00000000001
 30
0.0
  3
Rckans1
  1

  0
INSERT
  5
59
330
58
100
AcDbEntity
  8
0
100
AcDbBlockReference
  2
D_DTME_6-select__3
 10
155.0000006297045
 20
854.0508295791728
 30
0.0
  0
ENDBLK
  5
5B
330
58
100
AcDbEntity
  8
0
100
AcDbBlockEnd
  0
BLOCK
  5
5D
330
5C
100
AcDbEntity
  8
0
100
AcDbBlockBegin
  2
D_DTME_6-select__4
 70
     0
 10
125.8999999761178
 20
854.0508295791712
 30
0.0
  3
D_DTME_6-select__4
  1

  0
LINE
  5
DF
330
5C
100
AcDbEntity
  8
0
  6
Continuous
 62
     7
100
AcDbLine
 10
128.0999999761762
 20
895.9516639141852
 30
0.0
 11
128.0999999761699
 21
895.2933625705672
 31
0.0
  0
LINE
  5
E0
330
5C
100
AcDbEntity
  8
0
  6
Continuous
 62
     7
100
AcDbLine
 10
125.8999999761699
 20
895.2933625705688
 30
0.0
 11
128.0999999761699
 21
895.2933625705672
 31
0.0
  0
LINE
  5
E1
330
5C
100
AcDbEntity
  8
0
  6
Continuous
 62
     7
100
AcDbLine
 10
125.899999976182
 20
895.9516639141868
 30
0.0
 11
128.0999999761762
 21
895.9516639141852
 31
0.0
  0
LINE
  5
E2
330
5C
100
AcDbEntity
  8
0
  6
Continuous
 62
     7
100
AcDbLine
 10
125.8999999761223
 20
862.0508295792257
 30
0.0
 11
125.8999999761322
 21
875.0508295794507
 31
0.0
  0
LINE
  5
E3
330
5C
100
AcDbEntity
  8
0
  6
Continuous
 62
     7
100
AcDbLine
 10
125.8999999761223
 20
862.0508295792257
 30
0.0
 11
125.8999999761206
 21
859.850829579182
 31
0.0
  0
LINE
  5
E4
330
5C
100
AcDbEntity
  8
0
  6
Continuous
 62
     7
100
AcDbLine
 10
125.8999999761206
 20
859.850829579182
 30
0.0
 11
125.8999999761178
 21
854.050829579173
 31
0.0
  0
LINE
  5
E5
330
5C
100
AcDbEntity
  8
0
  6
Continuous
 62
     7
100
AcDbLine
 10
125.8999999761223
 20
862.0508295792257
 30
0.0
 11
128.0999999761223
 21
862.050829579224
 31
0.0
  0
LINE
  5
E6
330
5C
100
AcDbEntity
  8
0
  6
Continuous
 62
     7
100
AcDbLine
 10
125.8999999761206
 20
859.850829579182
 30
0.0
 11
128.0999999761206
 21
859.8508295791803
 31
0.0
  0
LINE
  5
E7
330
5C
100
AcDbEntity
  8
0
  6
Continuous
 62
     7
100
AcDbLine
 10
125.8999999761178
 20
854.050829579173
 30
0.0
 11
128.0999999761178
 21
854.0508295791712
 31
0.0
  0
LINE
  5
E8
330
5C
100
AcDbEntity
  8
0
  6
Continuous
 62
     7
100
AcDbLine
 10
125.8999999761413
 20
887.093577381208
 30
0.0
 11
125.8999999761322
 21
875.0508295794507
 31
0.0
  0
LINE
  5
E9
330
5C
100
AcDbEntity
  8
0
  6
Continuous
 62
     7
100
AcDbLine
 10
128.0999999761413
 20
887.0935773812063
 30
0.0
 11
128.0999999761322
 21
875.050829579449
 31
0.0
  0
LINE
  5
EA
330
5C
100
AcDbEntity
  8
0
  6
Continuous
 62
     7
100
AcDbLine
 10
128.0999999761223
 20
862.050829579224
 30
0.0
 11
128.0999999761206
 21
859.8508295791803
 31
0.0
  0
LINE
  5
EB
330
5C
100
AcDbEntity
  8
0
  6
Continuous
 62
     7
100
AcDbLine
 10
128.0999999761206
 20
859.8508295791803
 30
0.0
 11
128.0999999761178
 21
854.0508295791712
 31
0.0
  0
LINE
  5
EC
330
5C
100
AcDbEntity
  8
0
  6
Continuous
 62
     7
100
AcDbLine
 10
128.0999999761492
 20
890.3331241731764
 30
0.0
 11
128.0999999761699
 21
895.2933625705672
 31
0.0
  0
LINE
  5
ED
330
5C
100
AcDbEntity
  8
0
  6
Continuous
 62
     7
100
AcDbLine
 10
128.0999999761492
 20
890.3331241731764
 30
0.0
 11
128.0999999761413
 21
887.0935773812063
 31
0.0
  0
LINE
  5
EE
330
5C
100
AcDbEntity
  8
0
  6
Continuous
 62
     7
100
AcDbLine
 10
125.8999999761322
 20
875.0508295794507
 30
0.0
 11
128.0999999761322
 21
875.050829579449
 31
0.0
  0
LINE
  5
EF
330
5C
100
AcDbEntity
  8
0
  6
Continuous
 62
     7
100
AcDbLine
 10
125.899999976182
 20
895.9516639141868
 30
0.0
 11
125.8999999761699
 21
895.2933625705688
 31
0.0
  0
LINE
  5
F0
330
5C
100
AcDbEntity
  8
0
  6
Continuous
 62
     7
100
AcDbLine
 10
125.8999999761491
 20
890.3331241731781
 30
0.0
 11
125.8999999761699
 21
895.2933625705688
 31
0.0
  0
LINE
  5
F1
330
5C
100
AcDbEntity
  8
0
  6
Continuous
 62
     7
100
AcDbLine
 10
125.8999999761491
 20
890.3331241731781
 30
0.0
 11
125.8999999761413
 21
887.093577381208
 31
0.0
  0
LINE
  5
F2
330
5C
100
AcDbEntity
  8
0
  6
Continuous
 62
     7
100
AcDbLine
 10
125.8999999761413
 20
887.093577381208
 30
0.0
 11
128.0999999761413
 21
887.0935773812063
 31
0.0
  0
LINE
  5
F3
330
5C
100
AcDbEntity
  8
0
  6
Continuous
 62
     7
100
AcDbLine
 10
128.0999999761492
 20
890.3331241731764
 30
0.0
 11
125.8999999761491
 21
890.3331241731781
 31
0.0
  0
LINE
  5
F4
330
5C
100
AcDbEntity
  8
0
  6
Continuous
 62
     7
100
AcDbLine
 10
128.0999999761223
 20
862.050829579224
 30
0.0
 11
128.0999999761322
 21
875.050829579449
 31
0.0
  0
ENDBLK
  5
5E
330
5C
100
AcDbEntity
  8
0
100
AcDbBlockEnd
  0
BLOCK
  5
61
330
5F
100
AcDbEntity
  8
0
100
AcDbBlockBegin
  2
SA_Links1
 70
     0
 10
127.0
 20
875.0000000000101
 30
0.0
  3
SA_Links1
  1

  0
INSERT
  5
60
330
5F
100
AcDbEntity
  8
0
100
AcDbBlockReference
  2
D_DTME_6-select__4
 10
125.8999999761178
 20
854.0508295791712
 30
0.0
  0
MTEXT
  5
F6
330
5F
100
AcDbEntity
  8
1
 62
     6
100
AcDbMText
 10
127.0
 20
849.0508295819254
 30
0.0
 40
5.0
 41
0.0
 71
     2
 72
     1
  1
 
  7
CONVERTER_11
 73
     1
 44
1.32052821128451
  0
DIMENSION
  5
103
330
5F
100
AcDbEntity
  8
1
100
AcDbDimension
  2
*D17
 10
125.8999999761179
 20
843.143473988459
 30
0.0
 11
138.1544635111221
 21
847.068473988459
 31
0.0
 70
    32
  1
<>
 71
     5
 42
-1.0
 53
0.00013888888889
  3
ME10_DIM_10
100
AcDbAlignedDimension
 13
128.0999999761178
 23
854.0508295791712
 33
0.0
 14
125.8999999761178
 24
854.050829579173
 34
0.0
100
AcDbRotatedDimension
  0
ENDBLK
  5
62
330
5F
100
AcDbEntity
  8
0
100
AcDbBlockEnd
  0
BLOCK
  5
64
330
63
100
AcDbEntity
  8
0
100
AcDbBlockBegin
  2
D_DTME_6-select__5
 70
     0
 10
-13.89999921326256
 20
854.0508295791712
 30
0.0
  3
D_DTME_6-select__5
  1

  0
LINE
  5
104
330
63
100
AcDbEntity
  8
0
  6
Continuous
 62
     7
100
AcDbLine
 10
-13.89999921324196
 20
895.6515184282842
 30
0.0
 11
-13.89999921323715
 21
895.9516639141851
 31
0.0
  0
LINE
  5
105
330
63
100
AcDbEntity
  8
0
  6
Continuous
 62
     7
100
AcDbLine
 10
-13.89999921326256
 20
887.0935773811846
 30
0.0
 11
-13.89999921325958
 21
890.333124173277
 31
0.0
  0
LINE
  5
106
330
63
100
AcDbEntity
  8
0
  6
Continuous
 62
     7
100
AcDbLine
 10
-13.89999921324795
 20
894.7203235406978
 30
0.0
 11
-13.89999921325958
 21
890.333124173277
 31
0.0
  0
LINE
  5
107
330
63
100
AcDbEntity
  8
0
  6
Continuous
 62
     7
100
AcDbLine
 10
-13.89999921324196
 20
895.6515184282842
 30
0.0
 11
-13.89999921324795
 21
894.7203235406978
 31
0.0
  0
LINE
  5
108
330
63
100
AcDbEntity
  8
0
  6
Continuous
 62
     7
100
AcDbLine
 10
-13.89999921325327
 20
874.8828551302053
 30
0.0
 11
-13.89999921326256
 21
887.0935773811846
 31
0.0
  0
LINE
  5
109
330
63
100
AcDbEntity
  8
0
  6
Continuous
 62
     2
100
AcDbLine
 10
-11.69999921323847
 20
856.8083082793466
 30
0.0
 11
-13.89999921323846
 21
856.8083082793449
 31
0.0
  0
LINE
  5
10A
330
63
100
AcDbEntity
  8
0
  6
Continuous
 62
     2
100
AcDbLine
 10
-11.69999921324157
 20
859.7672281113053
 30
0.0
 11
-13.89999921324156
 21
859.7672281113036
 31
0.0
  0
LINE
  5
10B
330
63
100
AcDbEntity
  8
0
  6
Continuous
 62
     7
100
AcDbLine
 10
-11.69999921322457
 20
854.0508295791728
 30
0.0
 11
-13.89999921322456
 21
854.0508295791712
 31
0.0
  0
LINE
  5
10C
330
63
100
AcDbEntity
  8
0
  6
Continuous
 62
     7
100
AcDbLine
 10
-11.69999921323847
 20
856.8083082793466
 30
0.0
 11
-11.69999921322457
 21
854.0508295791728
 31
0.0
  0
LINE
  5
10D
330
63
100
AcDbEntity
  8
0
  6
Continuous
 62
     7
100
AcDbLine
 10
-11.69999921325328
 20
874.882855130207
 30
0.0
 11
-11.69999921324157
 21
859.7672281113053
 31
0.0
  0
LINE
  5
10E
330
63
100
AcDbEntity
  8
0
  6
Continuous
 62
     7
100
AcDbLine
 10
-11.69999921323847
 20
856.8083082793466
 30
0.0
 11
-11.69999921324157
 21
859.7672281113053
 31
0.0
  0
LINE
  5
10F
330
63
100
AcDbEntity
  8
0
  6
Continuous
 62
     7
100
AcDbLine
 10
-13.89999921325958
 20
890.333124173277
 30
0.0
 11
-11.69999921325956
 21
890.3331241732787
 31
0.0
  0
LINE
  5
110
330
63
100
AcDbEntity
  8
0
  6
Continuous
 62
     7
100
AcDbLine
 10
-11.69999921326246
 20
887.0935773811862
 30
0.0
 11
-11.69999921325956
 21
890.3331241732787
 31
0.0
  0
LINE
  5
111
330
63
100
AcDbEntity
  8
0
  6
Continuous
 62
     7
100
AcDbLine
 10
-11.69999921324788
 20
894.7203235406995
 30
0.0
 11
-11.69999921325956
 21
890.3331241732787
 31
0.0
  0
LINE
  5
112
330
63
100
AcDbEntity
  8
0
  6
Continuous
 62
     7
100
AcDbLine
 10
-13.89999921322456
 20
854.0508295791712
 30
0.0
 11
-13.89999921323846
 21
856.8083082793449
 31
0.0
  0
LINE
  5
113
330
63
100
AcDbEntity
  8
0
  6
Continuous
 62
     7
100
AcDbLine
 10
-13.89999921323846
 20
856.8083082793449
 30
0.0
 11
-13.89999921324156
 21
859.7672281113036
 31
0.0
  0
LINE
  5
114
330
63
100
AcDbEntity
  8
0
  6
Continuous
 62
     7
100
AcDbLine
 10
-11.69999921324197
 20
895.651518428286
 30
0.0
 11
-11.69999921324296
 21
895.9516639141867
 31
0.0
  0
LINE
  5
115
330
63
100
AcDbEntity
  8
0
  6
Continuous
 62
     7
100
AcDbLine
 10
-11.69999921324197
 20
895.651518428286
 30
0.0
 11
-11.69999921324788
 21
894.7203235406995
 31
0.0
  0
LINE
  5
116
330
63
100
AcDbEntity
  8
0
  6
Continuous
 62
     7
100
AcDbLine
 10
-13.89999921324196
 20
895.6515184282842
 30
0.0
 11
-11.69999921324197
 21
895.651518428286
 31
0.0
  0
LINE
  5
117
330
63
100
AcDbEntity
  8
0
  6
Continuous
 62
     7
100
AcDbLine
 10
-11.69999921324788
 20
894.7203235406995
 30
0.0
 11
-13.89999921324795
 21
894.7203235406978
 31
0.0
  0
LINE
  5
118
330
63
100
AcDbEntity
  8
0
  6
Continuous
 62
     7
100
AcDbLine
 10
-11.69999921324296
 20
895.9516639141867
 30
0.0
 11
-13.89999921323715
 21
895.9516639141851
 31
0.0
  0
LINE
  5
119
330
63
100
AcDbEntity
  8
0
  6
Continuous
 62
     7
100
AcDbLine
 10
-13.89999921325327
 20
874.8828551302053
 30
0.0
 11
-11.69999921325328
 21
874.882855130207
 31
0.0
  0
LINE
  5
11A
330
63
100
AcDbEntity
  8
0
  6
Continuous
 62
     7
100
AcDbLine
 10
-11.69999921326246
 20
887.0935773811862
 30
0.0
 11
-13.89999921326256
 21
887.0935773811846
 31
0.0
  0
LINE
  5
11B
330
63
100
AcDbEntity
  8
0
  6
Continuous
 62
     7
100
AcDbLine
 10
-11.69999921325328
 20
874.882855130207
 30
0.0
 11
-11.69999921326246
 21
887.0935773811862
 31
0.0
  0
LINE
  5
11C
330
63
100
AcDbEntity
  8
0
  6
Continuous
 62
     7
100
AcDbLine
 10
-13.89999921325327
 20
874.8828551302053
 30
0.0
 11
-13.89999921324156
 21
859.7672281113036
 31
0.0
  0
ENDBLK
  5
65
330
63
100
AcDbEntity
  8
0
100
AcDbBlockEnd
  0
BLOCK
  5
68
330
66
100
AcDbEntity
  8
0
100
AcDbBlockBegin
  2
SA_Rechts1
 70
     0
 10
-12.79999923706097
 20
875.00000000001
 30
0.0
  3
SA_Rechts1
  1

  0
INSERT
  5
67
330
66
100
AcDbEntity
  8
0
100
AcDbBlockReference
  2
D_DTME_6-select__5
 10
-13.89999921326256
 20
854.0508295791712
 30
0.0
  0
ENDBLK
  5
69
330
66
100
AcDbEntity
  8
0
100
AcDbBlockEnd
  0
BLOCK
  5
6B
330
6A
100
AcDbEntity
  8
0
100
AcDbBlockBegin
  2
D_DTME_6-select__6
 70
     0
 10
3.19999934622858
 20
854.0508295791712
 30
0.0
  3
D_DTME_6-select__6
  1

  0
LINE
  5
11D
330
6A
100
AcDbEntity
  8
0
  6
Continuous
 62
     7
100
AcDbLine
 10
69.04472552045722
 20
893.7355157876589
 30
0.0
 11
69.21837369812901
 21
894.7203235406978
 31
0.0
  0
LINE
  5
11E
330
6A
100
AcDbEntity
  8
0
  6
Continuous
 62
     7
100
AcDbLine
 10
58.03916768309901
 20
894.5054302330456
 30
0.0
 11
58.17853457833721
 21
895.6515184282842
 31
0.0
  0
LINE
  5
11F
330
6A
100
AcDbEntity
  8
0
  6
Continuous
 62
     7
100
AcDbLine
 10
58.17853457833721
 20
895.6515184282842
 30
0.0
 11
69.04472552045722
 21
893.7355157876589
 31
0.0
  0
LINE
  5
120
330
6A
100
AcDbEntity
  8
0
  6
Continuous
 62
     7
100
AcDbLine
 10
102.9999993702958
 20
874.8828551302053
 30
0.0
 11
102.9999993702579
 21
887.0935773811846
 31
0.0
  0
LINE
  5
121
330
6A
100
AcDbEntity
  8
0
  6
Continuous
 62
     7
100
AcDbLine
 10
102.9999993702579
 20
887.0935773811846
 30
0.0
 11
94.099417709631
 21
890.3331241732772
 31
0.0
  0
LINE
  5
122
330
6A
100
AcDbEntity
  8
0
  6
Continuous
 62
     7
100
AcDbLine
 10
94.099417709631
 20
890.3331241732772
 30
0.0
 11
69.21837369812901
 21
894.7203235406978
 31
0.0
  0
LINE
  5
123
330
6A
100
AcDbEntity
  8
0
  6
Continuous
 62
     7
100
AcDbLine
 10
81.7123281274386
 20
854.0508295791712
 30
0.0
 11
5.85746468176463
 21
854.0508295791712
 31
0.0
  0
LINE
  5
124
330
6A
100
AcDbEntity
  8
0
  6
Continuous
 62
     7
100
AcDbLine
 10
81.7123281274386
 20
854.0508295791712
 30
0.0
 11
101.2790948034475
 21
856.8083082793449
 31
0.0
  0
LINE
  5
125
330
6A
100
AcDbEntity
  8
0
  6
Continuous
 62
     7
100
AcDbLine
 10
3.19999934628824
 20
859.8508295791802
 30
0.0
 11
7.41728005438101
 21
859.85082957918
 31
0.0
  0
LINE
  5
126
330
6A
100
AcDbEntity
  8
0
  6
Continuous
 62
     7
100
AcDbLine
 10
3.19999934626596
 20
887.0935773812062
 30
0.0
 11
3.19999934622858
 21
875.0508295794489
 31
0.0
  0
LINE
  5
127
330
6A
100
AcDbEntity
  8
0
  6
Continuous
 62
     7
100
AcDbLine
 10
12.10058100655665
 20
890.3331241731763
 30
0.0
 11
3.19999934626596
 21
887.0935773812062
 31
0.0
  0
LINE
  5
128
330
6A
100
AcDbEntity
  8
0
  6
Continuous
 62
     7
100
AcDbLine
 10
40.23149085065991
 20
895.2933625705671
 30
0.0
 11
40.45213609195611
 21
894.0420212250184
 31
0.0
  0
LINE
  5
129
330
6A
100
AcDbEntity
  8
0
  6
Continuous
 62
     7
100
AcDbLine
 10
3.19999934629506
 20
862.0508295792239
 30
0.0
 11
3.19999934628824
 21
859.8508295791802
 31
0.0
  0
LINE
  5
12A
330
6A
100
AcDbEntity
  8
0
  6
Continuous
 62
     7
100
AcDbLine
 10
40.23149085065991
 20
895.2933625705671
 30
0.0
 11
12.10058100655665
 21
890.3331241731763
 31
0.0
  0
ARC
  5
12B
330
6A
100
AcDbEntity
  8
0
  6
Continuous
 62
     7
100
AcDbCircle
 10
37.4999993463593
 20
848.6508295791784
 30
0.0
 40
32.09999999999995
100
AcDbArc
 50
159.5793606145302
 51
170.3154079248607
  0
ARC
  5
12C
330
6A
100
AcDbEntity
  8
0
  6
Continuous
 62
     7
100
AcDbCircle
 10
100.9999993583259
 20
858.7887389730357
 30
0.0
 40
2.000000000000042
100
AcDbArc
 50
278.0216757547292
 51
29.29094138305485
  0
ARC
  5
12D
330
6A
100
AcDbEntity
  8
0
  6
Continuous
 62
     7
100
AcDbCircle
 10
-10.31850648827987
 20
868.5508295792673
 30
0.0
 40
15.00000000000003
100
AcDbArc
 50
334.3207113803591
 51
25.6792886202264
  0
ARC
  5
12E
330
6A
100
AcDbEntity
  8
0
  6
Continuous
 62
     7
100
AcDbCircle
 10
49.8338264449639
 20
871.951663914185
 30
0.0
 40
24.00000000000023
100
AcDbArc
 50
90.0
 51
113.0107459732876
  0
ARC
  5
12F
330
6A
100
AcDbEntity
  8
0
  6
Continuous
 62
     7
100
AcDbCircle
 10
115.8264921399825
 20
867.1058966483115
 30
0.0
 40
14.99999999999749
100
AcDbArc
 50
148.7707308396141
 51
209.2909413830525
  0
ARC
  5
130
330
6A
100
AcDbEntity
  8
0
  6
Continuous
 62
     7
100
AcDbCircle
 10
49.8338264449639
 20
871.951663914185
 30
0.0
 40
24.00000000000018
100
AcDbArc
 50
70.00798267817626
 51
90.0
  0
ENDBLK
  5
6C
330
6A
100
AcDbEntity
  8
0
100
AcDbBlockEnd
  0
BLOCK
  5
6F
330
6D
100
AcDbEntity
  8
0
100
AcDbBlockBegin
  2
Vordans1
 70
     0
 10
53.10000038147211
 20
875.00000000001
 30
0.0
  3
Vordans1
  1

  0
INSERT
  5
6E
330
6D
100
AcDbEntity
  8
0
100
AcDbBlockReference
  2
D_DTME_6-select__6
 10
3.19999934622858
 20
854.0508295791712
 30
0.0
  0
MTEXT
  5
131
330
6D
100
AcDbEntity
  8
1
 62
     6
100
AcDbMText
 10
53.10000038146904
 20
849.0508295819254
 30
0.0
 40
5.0
 41
0.0
 71
     2
 72
     1
  1
 
  7
CONVERTER_11
 73
     1
 44
1.32052821128451
  0
DIMENSION
  5
13D
330
6D
100
AcDbEntity
  8
1
100
AcDbDimension
  2
*D18
 10
113.1404798686303
 20
854.0508295791712
 30
0.0
 11
109.2154798686303
 21
874.034342754755
 31
0.0
 70
    32
  1
<>
 71
     5
 42
-1.0
 53
90.0
  3
ME10_DIM_11
100
AcDbAlignedDimension
 13
49.8338264449639
 23
895.9516639141852
 33
0.0
 14
81.7123281274386
 24
854.0508295791712
 34
0.0
 50
90.0
100
AcDbRotatedDimension
  0
INSERT
  5
147
330
6D
100
AcDbEntity
  8
1
100
AcDbBlockReference
  2
*D19
 10
0.0
 20
0.0
 30
0.0
  0
ENDBLK
  5
70
330
6D
100
AcDbEntity
  8
0
100
AcDbBlockEnd
  0
BLOCK
  5
72
330
71
100
AcDbEntity
  8
0
100
AcDbBlockBegin
  2
_rahmen
 70
     0
 10
263.9500007202546
 20
731.3265379865035
 30
0.0
  3
_rahmen
  1

  0
LINE
  5
148
330
71
100
AcDbEntity
  8
1
  6
DOT_CENTER
 62
     2
100
AcDbLine
 10
138.3918510800672
 20
757.4515379865035
 30
0.0
 11
143.8918510800672
 21
757.4515379865035
 31
0.0
  0
LINE
  5
149
330
71
100
AcDbEntity
  8
1
  6
PHANTOM
 62
     2
100
AcDbLine
 10
147.1418510800672
 20
760.2015379865035
 30
0.0
 11
147.1418510800672
 21
754.7015379865035
 31
0.0
  0
LINE
  5
14A
330
71
100
AcDbEntity
  8
1
  6
PHANTOM
 62
     2
100
AcDbLine
 10
149.8918510800672
 20
757.4515379865035
 30
0.0
 11
144.3918510800672
 21
757.4515379865035
 31
0.0
  0
LINE
  5
14B
330
71
100
AcDbEntity
  8
1
  6
Continuous
 62
     7
100
AcDbLine
 10
198.7051961935046
 20
744.8265379865035
 30
0.0
 11
198.7051961935046
 21
753.3265379865036
 31
0.0
  0
LINE
  5
14C
330
71
100
AcDbEntity
  8
1
  6
Continuous
 62
     6
100
AcDbLine
 10
170.8051961935045
 20
753.3265379865036
 30
0.0
 11
263.9500007202563
 21
753.3265379865036
 31
0.0
  0
LINE
  5
14D
330
71
100
AcDbEntity
  8
1
  6
Continuous
 62
     7
100
AcDbLine
 10
134.4051961935046
 20
753.3265379865036
 30
0.0
 11
134.4051961935046
 21
761.8265379865036
 31
0.0
  0
LINE
  5
14E
330
71
100
AcDbEntity
  8
1
  6
Continuous
 62
     7
100
AcDbLine
 10
170.8051961935045
 20
753.3265379865036
 30
0.0
 11
170.8051961935045
 21
761.8265379865036
 31
0.0
  0
LINE
  5
14F
330
71
100
AcDbEntity
  8
1
  6
Continuous
 62
     7
100
AcDbLine
 10
228.5315924385775
 20
761.8265379865036
 30
0.0
 11
228.5315924385775
 21
753.3265379865036
 31
0.0
  0
LINE
  5
150
330
71
100
AcDbEntity
  8
1
  6
Continuous
 62
     7
100
AcDbLine
 10
255.0315924385771
 20
761.8265379865036
 30
0.0
 11
255.0315924385771
 21
753.3265379865036
 31
0.0
  0
LINE
  5
151
330
71
100
AcDbEntity
  8
1
  6
Continuous
 62
     6
100
AcDbLine
 10
65.4051961935046
 20
736.3265379865036
 30
0.0
 11
20.45000072025459
 21
736.3265379865036
 31
0.0
  0
LINE
  5
152
330
71
100
AcDbEntity
  8
1
  6
Continuous
 62
     7
100
AcDbLine
 10
263.9500007202558
 20
744.8265379865036
 30
0.0
 11
170.8051961935045
 21
744.8265379865036
 31
0.0
  0
LINE
  5
153
102
{ACAD_REACTORS
330
265
330
266
102
}
330
71
100
AcDbEntity
  8
0
  6
Continuous
 62
     2
100
AcDbLine
 10
148.112625135272
 20
745.6268271021669
 30
0.0
 11
148.112625135272
 21
746.4993441089701
 31
0.0
  0
LINE
  5
154
102
{ACAD_REACTORS
330
265
330
266
102
}
330
71
100
AcDbEntity
  8
0
  6
Continuous
 62
     2
100
AcDbLine
 10
148.112625135272
 20
744.667058394684
 30
0.0
 11
148.112625135272
 21
743.7945413878808
 31
0.0
  0
LINE
  5
155
102
{ACAD_REACTORS
330
267
330
268
102
}
330
71
100
AcDbEntity
  8
0
  6
Continuous
 62
     2
100
AcDbLine
 10
163.4456692715625
 20
745.8885822042074
 30
0.0
 11
164.5493085711306
 21
745.8885822042074
 31
0.0
  0
LINE
  5
156
102
{ACAD_REACTORS
330
267
330
268
102
}
330
71
100
AcDbEntity
  8
0
  6
Continuous
 62
     2
100
AcDbLine
 10
164.2153266145239
 20
744.6670583946835
 30
0.0
 11
164.2153266145239
 21
743.7945413878801
 31
0.0
  0
LINE
  5
157
102
{ACAD_REACTORS
330
271
330
272
102
}
330
71
100
AcDbEntity
  8
0
  6
Continuous
 62
     2
100
AcDbLine
 10
162.354569999144
 20
746.9792284626942
 30
0.0
 11
163.7525230460843
 21
748.5600874564692
 31
0.0
  0
LINE
  5
158
102
{ACAD_REACTORS
330
271
330
272
102
}
330
71
100
AcDbEntity
  8
0
  6
Continuous
 62
     2
100
AcDbLine
 10
162.4499934153168
 20
750.0330379865054
 30
0.0
 11
163.7525230460843
 21
748.5600874564692
 31
0.0
  0
LINE
  5
159
102
{ACAD_REACTORS
330
271
330
272
102
}
330
71
100
AcDbEntity
  8
0
  6
Continuous
 62
     2
100
AcDbLine
 10
165.0550526768507
 20
750.0330379865054
 30
0.0
 11
166.4577768945979
 21
750.0330379865054
 31
0.0
  0
LINE
  5
15A
102
{ACAD_REACTORS
330
271
330
272
102
}
330
71
100
AcDbEntity
  8
0
  6
Continuous
 62
     2
100
AcDbLine
 10
163.7572942168922
 20
746.9792284626942
 30
0.0
 11
164.4538851549579
 21
747.7669602479879
 31
0.0
  0
LINE
  5
15B
102
{ACAD_REACTORS
330
271
330
272
102
}
330
71
100
AcDbEntity
  8
0
  6
Continuous
 62
     2
100
AcDbLine
 10
163.7572942168922
 20
746.9792284626942
 30
0.0
 11
162.354569999144
 21
746.9792284626942
 31
0.0
  0
LINE
  5
15C
102
{ACAD_REACTORS
330
273
330
274
102
}
330
71
100
AcDbEntity
  8
0
  6
Continuous
 62
     2
100
AcDbLine
 10
162.2352907289271
 20
746.9792284626942
 30
0.0
 11
160.9947863186742
 21
746.9792284626942
 31
0.0
  0
LINE
  5
15D
102
{ACAD_REACTORS
330
275
330
276
102
}
330
71
100
AcDbEntity
  8
0
  6
Continuous
 62
     2
100
AcDbLine
 10
160.1268067105191
 20
744.8415617960444
 30
0.0
 11
159.826641473329
 21
745.609376762031
 31
0.0
  0
LINE
  5
15E
102
{ACAD_REACTORS
330
275
330
276
102
}
330
71
100
AcDbEntity
  8
0
  6
Continuous
 62
     2
100
AcDbLine
 10
159.5264762361366
 20
744.8415617960444
 30
0.0
 11
160.1268067105191
 21
744.8415617960444
 31
0.0
  0
LINE
  5
15F
102
{ACAD_REACTORS
330
275
330
276
102
}
330
71
100
AcDbEntity
  8
0
  6
Continuous
 62
     2
100
AcDbLine
 10
157.8084362212628
 20
743.62003798652
 30
0.0
 11
159.0489406315158
 21
743.62003798652
 31
0.0
  0
LINE
  5
160
102
{ACAD_REACTORS
330
275
330
276
102
}
330
71
100
AcDbEntity
  8
0
  6
Continuous
 62
     2
100
AcDbLine
 10
159.2063892682021
 20
746.6738475103309
 30
0.0
 11
160.4468936784548
 21
746.6738475103309
 31
0.0
  0
LINE
  5
161
102
{ACAD_REACTORS
330
275
330
276
102
}
330
71
100
AcDbEntity
  8
0
  6
Continuous
 62
     2
100
AcDbLine
 10
160.4468936784548
 20
746.6738475103309
 30
0.0
 11
161.8448467253951
 21
743.62003798652
 31
0.0
  0
LINE
  5
162
102
{ACAD_REACTORS
330
275
330
276
102
}
330
71
100
AcDbEntity
  8
0
  6
Continuous
 62
     2
100
AcDbLine
 10
160.6043423151412
 20
743.62003798652
 30
0.0
 11
160.3928622616654
 21
744.1609985307377
 31
0.0
  0
LINE
  5
163
102
{ACAD_REACTORS
330
277
330
278
102
}
330
71
100
AcDbEntity
  8
0
  6
Continuous
 62
     2
100
AcDbLine
 10
156.4620231195552
 20
743.62003798652
 30
0.0
 11
157.6548158217217
 21
743.62003798652
 31
0.0
  0
LINE
  5
164
102
{ACAD_REACTORS
330
277
330
278
102
}
330
71
100
AcDbEntity
  8
0
  6
Continuous
 62
     2
100
AcDbLine
 10
156.4620231195552
 20
745.8885822042074
 30
0.0
 11
156.4620231195552
 21
743.62003798652
 31
0.0
  0
LINE
  5
165
102
{ACAD_REACTORS
330
277
330
278
102
}
330
71
100
AcDbEntity
  8
0
  6
Continuous
 62
     2
100
AcDbLine
 10
155.6509240820806
 20
746.6738475103309
 30
0.0
 11
155.6509240820806
 21
745.8885822042074
 31
0.0
  0
LINE
  5
166
102
{ACAD_REACTORS
330
279
330
27A
102
}
330
71
100
AcDbEntity
  8
0
  6
Continuous
 62
     2
100
AcDbLine
 10
157.1301379636532
 20
746.9792284626942
 30
0.0
 11
158.3229306658197
 21
746.9792284626942
 31
0.0
  0
LINE
  5
167
102
{ACAD_REACTORS
330
279
330
27A
102
}
330
71
100
AcDbEntity
  8
0
  6
Continuous
 62
     2
100
AcDbLine
 10
159.5634350760737
 20
748.7242624763002
 30
0.0
 11
158.3229306658197
 21
750.0330379865054
 31
0.0
  0
LINE
  5
168
102
{ACAD_REACTORS
330
279
330
27A
102
}
330
71
100
AcDbEntity
  8
0
  6
Continuous
 62
     2
100
AcDbLine
 10
160.7562277782403
 20
750.0330379865054
 30
0.0
 11
159.5634350760737
 21
750.0330379865054
 31
0.0
  0
LINE
  5
169
102
{ACAD_REACTORS
330
279
330
27A
102
}
330
71
100
AcDbEntity
  8
0
  6
Continuous
 62
     2
100
AcDbLine
 10
160.7562277782403
 20
746.9792284626942
 30
0.0
 11
160.7562277782403
 21
750.0330379865054
 31
0.0
  0
LINE
  5
16A
102
{ACAD_REACTORS
330
279
330
27A
102
}
330
71
100
AcDbEntity
  8
0
  6
Continuous
 62
     2
100
AcDbLine
 10
159.5634350760737
 20
746.9792284626942
 30
0.0
 11
160.7562277782403
 21
746.9792284626942
 31
0.0
  0
LINE
  5
16B
102
{ACAD_REACTORS
330
279
330
27A
102
}
330
71
100
AcDbEntity
  8
0
  6
Continuous
 62
     2
100
AcDbLine
 10
158.3229306658197
 20
748.2880039728989
 30
0.0
 11
159.5634350760737
 21
746.9792284626942
 31
0.0
  0
LINE
  5
16C
102
{ACAD_REACTORS
330
27B
330
27C
102
}
330
71
100
AcDbEntity
  8
0
  6
Continuous
 62
     2
100
AcDbLine
 10
154.314996255654
 20
745.3650720001259
 30
0.0
 11
153.0744918454011
 21
746.6738475103309
 31
0.0
  0
LINE
  5
16D
102
{ACAD_REACTORS
330
27B
330
27C
102
}
330
71
100
AcDbEntity
  8
0
  6
Continuous
 62
     2
100
AcDbLine
 10
154.314996255654
 20
746.6738475103309
 30
0.0
 11
154.314996255654
 21
745.3650720001259
 31
0.0
  0
LINE
  5
16E
102
{ACAD_REACTORS
330
27B
330
27C
102
}
330
71
100
AcDbEntity
  8
0
  6
Continuous
 62
     2
100
AcDbLine
 10
155.5077889578204
 20
746.6738475103309
 30
0.0
 11
154.314996255654
 21
746.6738475103309
 31
0.0
  0
LINE
  5
16F
102
{ACAD_REACTORS
330
27B
330
27C
102
}
330
71
100
AcDbEntity
  8
0
  6
Continuous
 62
     2
100
AcDbLine
 10
155.5077889578204
 20
743.62003798652
 30
0.0
 11
155.5077889578204
 21
746.6738475103309
 31
0.0
  0
LINE
  5
170
102
{ACAD_REACTORS
330
27B
330
27C
102
}
330
71
100
AcDbEntity
  8
0
  6
Continuous
 62
     2
100
AcDbLine
 10
153.0744918454011
 20
744.9288134967245
 30
0.0
 11
154.314996255654
 21
743.62003798652
 31
0.0
  0
LINE
  5
171
102
{ACAD_REACTORS
330
27B
330
27C
102
}
330
71
100
AcDbEntity
  8
0
  6
Continuous
 62
     2
100
AcDbLine
 10
153.0744918454011
 20
743.62003798652
 30
0.0
 11
153.0744918454011
 21
744.9288134967245
 31
0.0
  0
LINE
  5
172
102
{ACAD_REACTORS
330
26B
330
26C
102
}
330
71
100
AcDbEntity
  8
0
  6
Continuous
 62
     2
100
AcDbLine
 10
155.5556515967926
 20
749.3350243810623
 30
0.0
 11
156.8915794232203
 21
749.3350243810623
 31
0.0
  0
LINE
  5
173
102
{ACAD_REACTORS
330
26B
330
26C
102
}
330
71
100
AcDbEntity
  8
0
  6
Continuous
 62
     2
100
AcDbLine
 10
155.5556515967926
 20
747.6772420681367
 30
0.0
 11
155.5556515967926
 21
748.1571264218784
 31
0.0
  0
LINE
  5
174
102
{ACAD_REACTORS
330
26B
330
26C
102
}
330
71
100
AcDbEntity
  8
0
  6
Continuous
 62
     2
100
AcDbLine
 10
156.8915794232203
 20
747.6772420681367
 30
0.0
 11
155.5556515967926
 21
747.6772420681367
 31
0.0
  0
LINE
  5
175
102
{ACAD_REACTORS
330
26B
330
26C
102
}
330
71
100
AcDbEntity
  8
0
  6
Continuous
 62
     2
100
AcDbLine
 10
156.8915794232203
 20
746.9792284626942
 30
0.0
 11
156.8915794232203
 21
747.6772420681367
 31
0.0
  0
LINE
  5
176
102
{ACAD_REACTORS
330
26B
330
26C
102
}
330
71
100
AcDbEntity
  8
0
  6
Continuous
 62
     2
100
AcDbLine
 10
153.7412596994393
 20
746.9792284626942
 30
0.0
 11
156.8915794232203
 21
746.9792284626942
 31
0.0
  0
LINE
  5
177
102
{ACAD_REACTORS
330
26B
330
26C
102
}
330
71
100
AcDbEntity
  8
0
  6
Continuous
 62
     2
100
AcDbLine
 10
153.7412596994393
 20
750.0330379865054
 30
0.0
 11
156.8915794232203
 21
750.0330379865054
 31
0.0
  0
LINE
  5
178
102
{ACAD_REACTORS
330
26B
330
26C
102
}
330
71
100
AcDbEntity
  8
0
  6
Continuous
 62
     2
100
AcDbLine
 10
156.8915794232203
 20
749.3350243810623
 30
0.0
 11
156.8915794232203
 21
750.0330379865054
 31
0.0
  0
LINE
  5
179
102
{ACAD_REACTORS
330
27D
330
27E
102
}
330
71
100
AcDbEntity
  8
0
  6
Continuous
 62
     2
100
AcDbLine
 10
150.8799042042993
 20
748.9642046531708
 30
0.0
 11
150.8799042042993
 21
750.0330379865054
 31
0.0
  0
LINE
  5
17A
102
{ACAD_REACTORS
330
27D
330
27E
102
}
330
71
100
AcDbEntity
  8
0
  6
Continuous
 62
     2
100
AcDbLine
 10
150.8799042042993
 20
750.0330379865054
 30
0.0
 11
152.0726969064657
 21
750.0330379865054
 31
0.0
  0
LINE
  5
17B
102
{ACAD_REACTORS
330
27D
330
27E
102
}
330
71
100
AcDbEntity
  8
0
  6
Continuous
 62
     2
100
AcDbLine
 10
150.8799042042993
 20
748.113500571538
 30
0.0
 11
149.8302466263918
 21
748.113500571538
 31
0.0
  0
LINE
  5
17C
102
{ACAD_REACTORS
330
27D
330
27E
102
}
330
71
100
AcDbEntity
  8
0
  6
Continuous
 62
     2
100
AcDbLine
 10
149.8302466263918
 20
748.113500571538
 30
0.0
 11
149.8302466263918
 21
746.9792284626942
 31
0.0
  0
LINE
  5
17D
102
{ACAD_REACTORS
330
27D
330
27E
102
}
330
71
100
AcDbEntity
  8
0
  6
Continuous
 62
     2
100
AcDbLine
 10
148.6374539242252
 20
750.0330379865054
 30
0.0
 11
148.6374539242252
 21
746.9792284626942
 31
0.0
  0
LINE
  5
17E
102
{ACAD_REACTORS
330
26F
330
270
102
}
330
71
100
AcDbEntity
  8
0
  6
Continuous
 62
     2
100
AcDbLine
 10
146.6812738926716
 20
748.664204491723
 30
0.0
 11
146.6812738926716
 21
749.3699321410653
 31
0.0
  0
LINE
  5
17F
102
{ACAD_REACTORS
330
26F
330
270
102
}
330
71
100
AcDbEntity
  8
0
  6
Continuous
 62
     2
100
AcDbLine
 10
145.4407694824175
 20
746.9792284626942
 30
0.0
 11
146.6812738926716
 21
746.9792284626942
 31
0.0
  0
LINE
  5
180
102
{ACAD_REACTORS
330
26F
330
270
102
}
330
71
100
AcDbEntity
  8
0
  6
Continuous
 62
     2
100
AcDbLine
 10
146.6812738926716
 20
746.9792284626942
 30
0.0
 11
146.6812738926716
 21
747.922306703838
 31
0.0
  0
LINE
  5
181
102
{ACAD_REACTORS
330
269
330
26A
102
}
330
71
100
AcDbEntity
  8
0
  6
Continuous
 62
     2
100
AcDbLine
 10
141.1358236332061
 20
744.3325935420768
 30
0.0
 11
139.6599903721965
 21
744.3325935420768
 31
0.0
  0
LINE
  5
182
102
{ACAD_REACTORS
330
269
330
26A
102
}
330
71
100
AcDbEntity
  8
0
  6
Continuous
 62
     2
100
AcDbLine
 10
138.6418510800672
 20
749.6087933711034
 30
0.0
 11
138.6418510800672
 21
744.0442826019032
 31
0.0
  0
LINE
  5
183
102
{ACAD_REACTORS
330
269
330
26A
102
}
330
71
100
AcDbEntity
  8
0
  6
Continuous
 62
     2
100
AcDbLine
 10
139.06609569545
 20
750.0330379864872
 30
0.0
 11
144.5394077861668
 21
750.0330379864872
 31
0.0
  0
LINE
  5
184
102
{ACAD_REACTORS
330
269
330
26A
102
}
330
71
100
AcDbEntity
  8
0
  6
Continuous
 62
     2
100
AcDbLine
 10
144.9636524015507
 20
749.6087933711034
 30
0.0
 11
144.9636524015507
 21
744.0442826019032
 31
0.0
  0
LINE
  5
185
102
{ACAD_REACTORS
330
269
330
26A
102
}
330
71
100
AcDbEntity
  8
0
  6
Continuous
 62
     2
100
AcDbLine
 10
144.5394077861668
 20
743.62003798652
 30
0.0
 11
139.06609569545
 21
743.62003798652
 31
0.0
  0
LINE
  5
186
102
{ACAD_REACTORS
330
269
330
26A
102
}
330
71
100
AcDbEntity
  8
0
  6
Continuous
 62
     2
100
AcDbLine
 10
141.4515405562827
 20
744.6483104651535
 30
0.0
 11
141.4515405562827
 21
746.1790813966851
 31
0.0
  0
LINE
  5
187
102
{ACAD_REACTORS
330
269
330
26A
102
}
330
71
100
AcDbEntity
  8
0
  6
Continuous
 62
     2
100
AcDbLine
 10
141.4515405562827
 20
748.4007408888101
 30
0.0
 11
141.4515405562827
 21
749.0047655078706
 31
0.0
  0
LINE
  5
188
102
{ACAD_REACTORS
330
269
330
26A
102
}
330
71
100
AcDbEntity
  8
0
  6
Continuous
 62
     2
100
AcDbLine
 10
139.6599903721965
 20
749.3204824309468
 30
0.0
 11
141.1358236332061
 21
749.3204824309468
 31
0.0
  0
LINE
  5
189
102
{ACAD_REACTORS
330
269
330
26A
102
}
330
71
100
AcDbEntity
  8
0
  6
Continuous
 62
     2
100
AcDbLine
 10
139.3442734491208
 20
749.0047655078706
 30
0.0
 11
139.3442734491208
 21
744.6483104651535
 31
0.0
  0
LINE
  5
18A
102
{ACAD_REACTORS
330
26F
330
270
102
}
330
71
100
AcDbEntity
  8
0
  6
Continuous
 62
     2
100
AcDbLine
 10
146.6812738926716
 20
747.922306703838
 30
0.0
 11
147.4400414804519
 21
747.922306703838
 31
0.0
  0
LINE
  5
18B
102
{ACAD_REACTORS
330
26F
330
270
102
}
330
71
100
AcDbEntity
  8
0
  6
Continuous
 62
     2
100
AcDbLine
 10
145.4407694824175
 20
750.0330379865054
 30
0.0
 11
147.4400414804519
 21
750.0330379865054
 31
0.0
  0
LINE
  5
18C
102
{ACAD_REACTORS
330
26F
330
270
102
}
330
71
100
AcDbEntity
  8
0
  6
Continuous
 62
     2
100
AcDbLine
 10
145.4407694824175
 20
750.0330379865054
 30
0.0
 11
145.4407694824175
 21
746.9792284626942
 31
0.0
  0
LINE
  5
18D
102
{ACAD_REACTORS
330
26F
330
270
102
}
330
71
100
AcDbEntity
  8
0
  6
Continuous
 62
     2
100
AcDbLine
 10
146.6812738926716
 20
748.664204491723
 30
0.0
 11
146.9985689542135
 21
748.664204491723
 31
0.0
  0
LINE
  5
18E
102
{ACAD_REACTORS
330
26F
330
270
102
}
330
71
100
AcDbEntity
  8
0
  6
Continuous
 62
     2
100
AcDbLine
 10
146.6812738926716
 20
749.3699321410653
 30
0.0
 11
146.9985689542135
 21
749.3699321410653
 31
0.0
  0
LINE
  5
18F
102
{ACAD_REACTORS
330
27D
330
27E
102
}
330
71
100
AcDbEntity
  8
0
  6
Continuous
 62
     2
100
AcDbLine
 10
149.8302466263918
 20
748.9642046531708
 30
0.0
 11
150.8799042042993
 21
748.9642046531708
 31
0.0
  0
LINE
  5
190
102
{ACAD_REACTORS
330
27D
330
27E
102
}
330
71
100
AcDbEntity
  8
0
  6
Continuous
 62
     2
100
AcDbLine
 10
149.8302466263918
 20
750.0330379865054
 30
0.0
 11
149.8302466263918
 21
748.9642046531708
 31
0.0
  0
LINE
  5
191
102
{ACAD_REACTORS
330
27D
330
27E
102
}
330
71
100
AcDbEntity
  8
0
  6
Continuous
 62
     2
100
AcDbLine
 10
148.6374539242252
 20
750.0330379865054
 30
0.0
 11
149.8302466263918
 21
750.0330379865054
 31
0.0
  0
LINE
  5
192
102
{ACAD_REACTORS
330
27D
330
27E
102
}
330
71
100
AcDbEntity
  8
0
  6
Continuous
 62
     2
100
AcDbLine
 10
149.8302466263918
 20
746.9792284626942
 30
0.0
 11
148.6374539242252
 21
746.9792284626942
 31
0.0
  0
LINE
  5
193
102
{ACAD_REACTORS
330
27D
330
27E
102
}
330
71
100
AcDbEntity
  8
0
  6
Continuous
 62
     2
100
AcDbLine
 10
150.8799042042993
 20
746.9792284626942
 30
0.0
 11
150.8799042042993
 21
748.113500571538
 31
0.0
  0
LINE
  5
194
102
{ACAD_REACTORS
330
27D
330
27E
102
}
330
71
100
AcDbEntity
  8
0
  6
Continuous
 62
     2
100
AcDbLine
 10
152.0726969064657
 20
746.9792284626942
 30
0.0
 11
150.8799042042993
 21
746.9792284626942
 31
0.0
  0
LINE
  5
195
102
{ACAD_REACTORS
330
27D
330
27E
102
}
330
71
100
AcDbEntity
  8
0
  6
Continuous
 62
     2
100
AcDbLine
 10
152.0726969064657
 20
750.0330379865054
 30
0.0
 11
152.0726969064657
 21
746.9792284626942
 31
0.0
  0
LINE
  5
196
102
{ACAD_REACTORS
330
26B
330
26C
102
}
330
71
100
AcDbEntity
  8
0
  6
Continuous
 62
     2
100
AcDbLine
 10
155.5556515967926
 20
748.1571264218784
 30
0.0
 11
156.8915794232203
 21
748.1571264218784
 31
0.0
  0
LINE
  5
197
102
{ACAD_REACTORS
330
26B
330
26C
102
}
330
71
100
AcDbEntity
  8
0
  6
Continuous
 62
     2
100
AcDbLine
 10
156.8915794232203
 20
748.1571264218784
 30
0.0
 11
156.8915794232203
 21
748.8551400273207
 31
0.0
  0
LINE
  5
198
102
{ACAD_REACTORS
330
26B
330
26C
102
}
330
71
100
AcDbEntity
  8
0
  6
Continuous
 62
     2
100
AcDbLine
 10
156.8915794232203
 20
748.8551400273207
 30
0.0
 11
155.5556515967926
 21
748.8551400273207
 31
0.0
  0
LINE
  5
199
102
{ACAD_REACTORS
330
26B
330
26C
102
}
330
71
100
AcDbEntity
  8
0
  6
Continuous
 62
     2
100
AcDbLine
 10
155.5556515967926
 20
748.8551400273207
 30
0.0
 11
155.5556515967926
 21
749.3350243810623
 31
0.0
  0
LINE
  5
19A
102
{ACAD_REACTORS
330
27B
330
27C
102
}
330
71
100
AcDbEntity
  8
0
  6
Continuous
 62
     2
100
AcDbLine
 10
151.8816991432335
 20
743.62003798652
 30
0.0
 11
153.0744918454011
 21
743.62003798652
 31
0.0
  0
LINE
  5
19B
102
{ACAD_REACTORS
330
27B
330
27C
102
}
330
71
100
AcDbEntity
  8
0
  6
Continuous
 62
     2
100
AcDbLine
 10
154.314996255654
 20
743.62003798652
 30
0.0
 11
155.5077889578204
 21
743.62003798652
 31
0.0
  0
LINE
  5
19C
102
{ACAD_REACTORS
330
27B
330
27C
102
}
330
71
100
AcDbEntity
  8
0
  6
Continuous
 62
     2
100
AcDbLine
 10
153.0744918454011
 20
746.6738475103309
 30
0.0
 11
151.8816991432335
 21
746.6738475103309
 31
0.0
  0
LINE
  5
19D
102
{ACAD_REACTORS
330
27B
330
27C
102
}
330
71
100
AcDbEntity
  8
0
  6
Continuous
 62
     2
100
AcDbLine
 10
151.8816991432335
 20
746.6738475103309
 30
0.0
 11
151.8816991432335
 21
743.62003798652
 31
0.0
  0
LINE
  5
19E
102
{ACAD_REACTORS
330
279
330
27A
102
}
330
71
100
AcDbEntity
  8
0
  6
Continuous
 62
     2
100
AcDbLine
 10
159.5634350760737
 20
750.0330379865054
 30
0.0
 11
159.5634350760737
 21
748.7242624763002
 31
0.0
  0
LINE
  5
19F
102
{ACAD_REACTORS
330
279
330
27A
102
}
330
71
100
AcDbEntity
  8
0
  6
Continuous
 62
     2
100
AcDbLine
 10
158.3229306658197
 20
750.0330379865054
 30
0.0
 11
157.1301379636532
 21
750.0330379865054
 31
0.0
  0
LINE
  5
1A0
102
{ACAD_REACTORS
330
279
330
27A
102
}
330
71
100
AcDbEntity
  8
0
  6
Continuous
 62
     2
100
AcDbLine
 10
157.1301379636532
 20
750.0330379865054
 30
0.0
 11
157.1301379636532
 21
746.9792284626942
 31
0.0
  0
LINE
  5
1A1
102
{ACAD_REACTORS
330
279
330
27A
102
}
330
71
100
AcDbEntity
  8
0
  6
Continuous
 62
     2
100
AcDbLine
 10
158.3229306658197
 20
746.9792284626942
 30
0.0
 11
158.3229306658197
 21
748.2880039728989
 31
0.0
  0
LINE
  5
1A2
102
{ACAD_REACTORS
330
277
330
278
102
}
330
71
100
AcDbEntity
  8
0
  6
Continuous
 62
     2
100
AcDbLine
 10
157.6548158217217
 20
743.62003798652
 30
0.0
 11
157.6548158217217
 21
745.8885822042074
 31
0.0
  0
LINE
  5
1A3
102
{ACAD_REACTORS
330
277
330
278
102
}
330
71
100
AcDbEntity
  8
0
  6
Continuous
 62
     2
100
AcDbLine
 10
157.6548158217217
 20
745.8885822042074
 30
0.0
 11
158.4659148591942
 21
745.8885822042074
 31
0.0
  0
LINE
  5
1A4
102
{ACAD_REACTORS
330
277
330
278
102
}
330
71
100
AcDbEntity
  8
0
  6
Continuous
 62
     2
100
AcDbLine
 10
158.4659148591942
 20
745.8885822042074
 30
0.0
 11
158.4659148591942
 21
746.6738475103309
 31
0.0
  0
LINE
  5
1A5
102
{ACAD_REACTORS
330
277
330
278
102
}
330
71
100
AcDbEntity
  8
0
  6
Continuous
 62
     2
100
AcDbLine
 10
158.4659148591942
 20
746.6738475103309
 30
0.0
 11
155.6509240820806
 21
746.6738475103309
 31
0.0
  0
LINE
  5
1A6
102
{ACAD_REACTORS
330
277
330
278
102
}
330
71
100
AcDbEntity
  8
0
  6
Continuous
 62
     2
100
AcDbLine
 10
155.6509240820806
 20
745.8885822042074
 30
0.0
 11
156.4620231195552
 21
745.8885822042074
 31
0.0
  0
LINE
  5
1A7
102
{ACAD_REACTORS
330
275
330
276
102
}
330
71
100
AcDbEntity
  8
0
  6
Continuous
 62
     2
100
AcDbLine
 10
159.2604206849916
 20
744.1609985307377
 30
0.0
 11
160.3928622616654
 21
744.1609985307377
 31
0.0
  0
LINE
  5
1A8
102
{ACAD_REACTORS
330
275
330
276
102
}
330
71
100
AcDbEntity
  8
0
  6
Continuous
 62
     2
100
AcDbLine
 10
161.8448467253951
 20
743.62003798652
 30
0.0
 11
160.6043423151412
 21
743.62003798652
 31
0.0
  0
LINE
  5
1A9
102
{ACAD_REACTORS
330
275
330
276
102
}
330
71
100
AcDbEntity
  8
0
  6
Continuous
 62
     2
100
AcDbLine
 10
159.2063892682021
 20
746.6738475103309
 30
0.0
 11
157.8084362212628
 21
743.62003798652
 31
0.0
  0
LINE
  5
1AA
102
{ACAD_REACTORS
330
275
330
276
102
}
330
71
100
AcDbEntity
  8
0
  6
Continuous
 62
     2
100
AcDbLine
 10
159.0489406315158
 20
743.62003798652
 30
0.0
 11
159.2604206849916
 21
744.1609985307377
 31
0.0
  0
LINE
  5
1AB
102
{ACAD_REACTORS
330
275
330
276
102
}
330
71
100
AcDbEntity
  8
0
  6
Continuous
 62
     2
100
AcDbLine
 10
159.5264762361366
 20
744.8415617960444
 30
0.0
 11
159.826641473329
 21
745.609376762031
 31
0.0
  0
LINE
  5
1AC
102
{ACAD_REACTORS
330
273
330
274
102
}
330
71
100
AcDbEntity
  8
0
  6
Continuous
 62
     2
100
AcDbLine
 10
160.9947863186742
 20
746.9792284626942
 30
0.0
 11
160.9947863186742
 21
750.0330379865054
 31
0.0
  0
LINE
  5
1AD
102
{ACAD_REACTORS
330
273
330
274
102
}
330
71
100
AcDbEntity
  8
0
  6
Continuous
 62
     2
100
AcDbLine
 10
162.2352907289271
 20
750.0330379865054
 30
0.0
 11
162.2352907289271
 21
746.9792284626942
 31
0.0
  0
LINE
  5
1AE
102
{ACAD_REACTORS
330
273
330
274
102
}
330
71
100
AcDbEntity
  8
0
  6
Continuous
 62
     2
100
AcDbLine
 10
160.9947863186742
 20
750.0330379865054
 30
0.0
 11
162.2352907289271
 21
750.0330379865054
 31
0.0
  0
LINE
  5
1AF
102
{ACAD_REACTORS
330
271
330
272
102
}
330
71
100
AcDbEntity
  8
0
  6
Continuous
 62
     2
100
AcDbLine
 10
164.4538851549579
 20
747.7669602479879
 30
0.0
 11
165.1504760930234
 21
746.9792284626942
 31
0.0
  0
LINE
  5
1B0
102
{ACAD_REACTORS
330
271
330
272
102
}
330
71
100
AcDbEntity
  8
0
  6
Continuous
 62
     2
100
AcDbLine
 10
165.1504760930234
 20
746.9792284626942
 30
0.0
 11
166.5532003107717
 21
746.9792284626942
 31
0.0
  0
LINE
  5
1B1
102
{ACAD_REACTORS
330
271
330
272
102
}
330
71
100
AcDbEntity
  8
0
  6
Continuous
 62
     2
100
AcDbLine
 10
165.1552472638314
 20
748.5600874564692
 30
0.0
 11
166.5532003107717
 21
746.9792284626942
 31
0.0
  0
LINE
  5
1B2
102
{ACAD_REACTORS
330
271
330
272
102
}
330
71
100
AcDbEntity
  8
0
  6
Continuous
 62
     2
100
AcDbLine
 10
165.1552472638314
 20
748.5600874564692
 30
0.0
 11
166.4577768945979
 21
750.0330379865054
 31
0.0
  0
LINE
  5
1B3
102
{ACAD_REACTORS
330
271
330
272
102
}
330
71
100
AcDbEntity
  8
0
  6
Continuous
 62
     2
100
AcDbLine
 10
164.4538851549579
 20
749.3532146649499
 30
0.0
 11
165.0550526768507
 21
750.0330379865054
 31
0.0
  0
LINE
  5
1B4
102
{ACAD_REACTORS
330
271
330
272
102
}
330
71
100
AcDbEntity
  8
0
  6
Continuous
 62
     2
100
AcDbLine
 10
163.8527176330661
 20
750.0330379865054
 30
0.0
 11
164.4538851549579
 21
749.3532146649499
 31
0.0
  0
LINE
  5
1B5
102
{ACAD_REACTORS
330
271
330
272
102
}
330
71
100
AcDbEntity
  8
0
  6
Continuous
 62
     2
100
AcDbLine
 10
163.8527176330661
 20
750.0330379865054
 30
0.0
 11
162.4499934153168
 21
750.0330379865054
 31
0.0
  0
LINE
  5
1B6
102
{ACAD_REACTORS
330
267
330
268
102
}
330
71
100
AcDbEntity
  8
0
  6
Continuous
 62
     2
100
AcDbLine
 10
164.5493085711306
 20
743.62003798652
 30
0.0
 11
165.7421012732983
 21
743.62003798652
 31
0.0
  0
LINE
  5
1B7
102
{ACAD_REACTORS
330
267
330
268
102
}
330
71
100
AcDbEntity
  8
0
  6
Continuous
 62
     2
100
AcDbLine
 10
165.7421012732983
 20
743.62003798652
 30
0.0
 11
165.7421012732983
 21
745.8885822042074
 31
0.0
  0
LINE
  5
1B8
102
{ACAD_REACTORS
330
267
330
268
102
}
330
71
100
AcDbEntity
  8
0
  6
Continuous
 62
     2
100
AcDbLine
 10
165.7421012732983
 20
745.8885822042074
 30
0.0
 11
166.5532003107717
 21
745.8885822042074
 31
0.0
  0
LINE
  5
1B9
102
{ACAD_REACTORS
330
267
330
268
102
}
330
71
100
AcDbEntity
  8
0
  6
Continuous
 62
     2
100
AcDbLine
 10
166.5532003107717
 20
745.8885822042074
 30
0.0
 11
166.5532003107717
 21
746.6738475103309
 31
0.0
  0
LINE
  5
1BA
102
{ACAD_REACTORS
330
267
330
268
102
}
330
71
100
AcDbEntity
  8
0
  6
Continuous
 62
     2
100
AcDbLine
 10
163.168254792143
 20
746.6738475103305
 30
0.0
 11
166.5532003107717
 21
746.6738475103309
 31
0.0
  0
LINE
  5
1BB
102
{ACAD_REACTORS
330
267
330
268
102
}
330
71
100
AcDbEntity
  8
0
  6
Continuous
 62
     2
100
AcDbLine
 10
164.5493085711306
 20
745.8885822042074
 30
0.0
 11
164.5493085711306
 21
743.62003798652
 31
0.0
  0
LINE
  5
1BC
102
{ACAD_REACTORS
330
269
330
26A
102
}
330
71
100
AcDbEntity
  8
0
  6
Continuous
 62
     2
100
AcDbLine
 10
141.9198221356514
 20
745.5989181360844
 30
0.0
 11
141.9198221356514
 21
746.1807695427794
 31
0.0
  0
LINE
  5
1BD
102
{ACAD_REACTORS
330
269
330
26A
102
}
330
71
100
AcDbEntity
  8
0
  6
Continuous
 62
     2
100
AcDbLine
 10
141.9198221356514
 20
748.3990527427156
 30
0.0
 11
141.9198221356514
 21
749.0045880312225
 31
0.0
  0
LINE
  5
1BE
330
71
100
AcDbEntity
  8
1
  6
Continuous
 62
     6
100
AcDbLine
 10
120.4500007202546
 20
736.3265379865036
 30
0.0
 11
134.4051961935046
 21
736.3265379865035
 31
0.0
  0
LINE
  5
1BF
330
71
100
AcDbEntity
  8
1
  6
Continuous
 62
     6
100
AcDbLine
 10
70.45000072025437
 20
736.3265379865036
 30
0.0
 11
65.4051961935046
 21
736.3265379865036
 31
0.0
  0
LINE
  5
1C0
330
71
100
AcDbEntity
  8
1
  6
Continuous
 62
     6
100
AcDbLine
 10
220.4500007202546
 20
736.3265379865036
 30
0.0
 11
263.9500007202546
 21
736.3265379865036
 31
0.0
  0
LINE
  5
1C1
330
71
100
AcDbEntity
  8
1
  6
Continuous
 62
     6
100
AcDbLine
 10
170.4500007202546
 20
736.3265379865036
 30
0.0
 11
152.6051961935046
 21
736.3265379865036
 31
0.0
  0
LINE
  5
1C2
330
71
100
AcDbEntity
  8
1
  6
Continuous
 62
     2
100
AcDbLine
 10
263.9500007202546
 20
736.3265379865036
 30
0.0
 11
268.9500007202536
 21
736.3265379865036
 31
0.0
  0
LINE
  5
1C3
330
71
100
AcDbEntity
  8
1
  6
Continuous
 62
     2
100
AcDbLine
 10
263.9500007202546
 20
736.3265379865036
 30
0.0
 11
263.9500007202546
 21
731.3265379865035
 31
0.0
  0
LINE
  5
1C4
330
71
100
AcDbEntity
  8
1
  6
Continuous
 62
     6
100
AcDbLine
 10
134.4051961935046
 20
753.3265379865036
 30
0.0
 11
170.8051961935045
 21
753.3265379865036
 31
0.0
  0
LINE
  5
1C5
330
71
100
AcDbEntity
  8
1
  6
Continuous
 62
     2
100
AcDbLine
 10
268.9500007202536
 20
731.3265379865035
 30
0.0
 11
268.9500007202536
 21
736.3265379865036
 31
0.0
  0
LINE
  5
1C6
330
71
100
AcDbEntity
  8
1
  6
Continuous
 62
     2
100
AcDbLine
 10
268.9500007202536
 20
731.3265379865035
 30
0.0
 11
263.9500007202546
 21
731.3265379865035
 31
0.0
  0
LINE
  5
1C7
330
71
100
AcDbEntity
  8
1
  6
Continuous
 62
     2
100
AcDbLine
 10
263.9500007202546
 20
731.3265379865035
 30
0.0
 11
220.4500007202546
 21
731.3265379865035
 31
0.0
  0
LINE
  5
1C8
330
71
100
AcDbEntity
  8
1
  6
Continuous
 62
     6
100
AcDbLine
 10
263.9500007202563
 20
753.3265379865036
 30
0.0
 11
263.9500007202555
 21
786.3265379865037
 31
0.0
  0
LINE
  5
1C9
330
71
100
AcDbEntity
  8
1
  6
Continuous
 62
     2
100
AcDbLine
 10
268.9500007202536
 20
941.3265379865036
 30
0.0
 11
120.4500007202546
 21
941.3265379865036
 31
0.0
  0
LINE
  5
1CA
330
71
100
AcDbEntity
  8
1
  6
Continuous
 62
     6
100
AcDbLine
 10
263.9500007202536
 20
921.3265379865036
 30
0.0
 11
-23.0499992797445
 21
921.3265379865036
 31
0.0
  0
LINE
  5
1CB
330
71
100
AcDbEntity
  8
1
  6
Continuous
 62
     2
100
AcDbLine
 10
263.9500007202555
 20
786.3265379865037
 30
0.0
 11
268.9500007202536
 21
786.3265379865037
 31
0.0
  0
LINE
  5
1CC
330
71
100
AcDbEntity
  8
1
  6
Continuous
 62
     6
100
AcDbLine
 10
263.9500007202555
 20
786.3265379865037
 30
0.0
 11
263.950000720255
 21
836.3265379865035
 31
0.0
  0
LINE
  5
1CD
330
71
100
AcDbEntity
  8
1
  6
Continuous
 62
     2
100
AcDbLine
 10
268.9500007202536
 20
786.3265379865037
 30
0.0
 11
268.9500007202536
 21
836.3265379865035
 31
0.0
  0
LINE
  5
1CE
330
71
100
AcDbEntity
  8
1
  6
Continuous
 62
     2
100
AcDbLine
 10
263.950000720255
 20
836.3265379865035
 30
0.0
 11
268.9500007202536
 21
836.3265379865035
 31
0.0
  0
LINE
  5
1CF
330
71
100
AcDbEntity
  8
1
  6
Continuous
 62
     6
100
AcDbLine
 10
263.950000720255
 20
836.3265379865035
 30
0.0
 11
263.9500007202538
 21
886.3265379865036
 31
0.0
  0
LINE
  5
1D0
330
71
100
AcDbEntity
  8
1
  6
Continuous
 62
     2
100
AcDbLine
 10
268.9500007202536
 20
836.3265379865035
 30
0.0
 11
268.9500007202536
 21
886.3265379865036
 31
0.0
  0
LINE
  5
1D1
330
71
100
AcDbEntity
  8
1
  6
Continuous
 62
     2
100
AcDbLine
 10
263.9500007202538
 20
886.3265379865036
 30
0.0
 11
268.9500007202536
 21
886.3265379865036
 31
0.0
  0
LINE
  5
1D2
330
71
100
AcDbEntity
  8
1
  6
Continuous
 62
     6
100
AcDbLine
 10
263.9500007202538
 20
886.3265379865036
 30
0.0
 11
263.9500007202536
 21
921.3265379865036
 31
0.0
  0
LINE
  5
1D3
330
71
100
AcDbEntity
  8
1
  6
Continuous
 62
     2
100
AcDbLine
 10
268.9500007202536
 20
886.3265379865036
 30
0.0
 11
268.9500007202536
 21
941.3265379865036
 31
0.0
  0
LINE
  5
1D4
330
71
100
AcDbEntity
  8
1
  6
Continuous
 62
     2
100
AcDbLine
 10
268.9500007202536
 20
736.3265379865036
 30
0.0
 11
268.9500007202536
 21
786.3265379865037
 31
0.0
  0
LINE
  5
1D5
330
71
100
AcDbEntity
  8
1
  6
Continuous
 62
     2
100
AcDbLine
 10
120.4500007202546
 20
941.3265379865036
 30
0.0
 11
-28.0499992797445
 21
941.3265379865036
 31
0.0
  0
LINE
  5
1D6
330
71
100
AcDbEntity
  8
1
  6
Continuous
 62
     2
100
AcDbLine
 10
120.4500007202546
 20
941.3265379865036
 30
0.0
 11
120.4500007202546
 21
932.1178461418023
 31
0.0
  0
LINE
  5
1D7
330
71
100
AcDbEntity
  8
1
  6
Continuous
 62
     2
100
AcDbLine
 10
-28.0499992797445
 20
731.3265379865035
 30
0.0
 11
-23.04999927974353
 21
731.3265379865035
 31
0.0
  0
LINE
  5
1D8
330
71
100
AcDbEntity
  8
1
  6
Continuous
 62
     2
100
AcDbLine
 10
-28.0499992797445
 20
941.3265379865036
 30
0.0
 11
-28.0499992797445
 21
886.3265379865036
 31
0.0
  0
LINE
  5
1D9
330
71
100
AcDbEntity
  8
1
  6
Continuous
 62
     6
100
AcDbLine
 10
-23.0499992797445
 20
921.3265379865036
 30
0.0
 11
-23.04999927974444
 21
886.3265379865036
 31
0.0
  0
LINE
  5
1DA
330
71
100
AcDbEntity
  8
1
  6
Continuous
 62
     2
100
AcDbLine
 10
-28.0499992797445
 20
886.3265379865036
 30
0.0
 11
-23.04999927974444
 21
886.3265379865036
 31
0.0
  0
LINE
  5
1DB
330
71
100
AcDbEntity
  8
1
  6
Continuous
 62
     2
100
AcDbLine
 10
-28.0499992797445
 20
886.3265379865036
 30
0.0
 11
-28.0499992797445
 21
836.3265379865035
 31
0.0
  0
LINE
  5
1DC
330
71
100
AcDbEntity
  8
1
  6
Continuous
 62
     6
100
AcDbLine
 10
-23.04999927974444
 20
886.3265379865036
 30
0.0
 11
-23.04999927974393
 21
836.3265379865035
 31
0.0
  0
LINE
  5
1DD
330
71
100
AcDbEntity
  8
1
  6
Continuous
 62
     2
100
AcDbLine
 10
-28.0499992797445
 20
836.3265379865035
 30
0.0
 11
-23.04999927974393
 21
836.3265379865035
 31
0.0
  0
LINE
  5
1DE
330
71
100
AcDbEntity
  8
1
  6
Continuous
 62
     2
100
AcDbLine
 10
-28.0499992797445
 20
836.3265379865035
 30
0.0
 11
-28.0499992797445
 21
786.3265379865037
 31
0.0
  0
LINE
  5
1DF
330
71
100
AcDbEntity
  8
1
  6
Continuous
 62
     6
100
AcDbLine
 10
-23.04999927974393
 20
836.3265379865035
 30
0.0
 11
-23.0499992797437
 21
786.3265379865037
 31
0.0
  0
LINE
  5
1E0
330
71
100
AcDbEntity
  8
1
  6
Continuous
 62
     2
100
AcDbLine
 10
-28.0499992797445
 20
786.3265379865037
 30
0.0
 11
-23.0499992797437
 21
786.3265379865037
 31
0.0
  0
LINE
  5
1E1
330
71
100
AcDbEntity
  8
1
  6
Continuous
 62
     2
100
AcDbLine
 10
-28.0499992797445
 20
786.3265379865037
 30
0.0
 11
-28.0499992797445
 21
736.3265379865036
 31
0.0
  0
LINE
  5
1E2
330
71
100
AcDbEntity
  8
1
  6
Continuous
 62
     6
100
AcDbLine
 10
-23.0499992797437
 20
786.3265379865037
 30
0.0
 11
-23.04999927974353
 21
736.3265379865036
 31
0.0
  0
LINE
  5
1E3
330
71
100
AcDbEntity
  8
1
  6
Continuous
 62
     2
100
AcDbLine
 10
20.45000072025459
 20
731.3265379865035
 30
0.0
 11
20.45000072025459
 21
736.3265379865036
 31
0.0
  0
LINE
  5
1E4
330
71
100
AcDbEntity
  8
1
  6
Continuous
 62
     2
100
AcDbLine
 10
20.45000072025459
 20
731.3265379865035
 30
0.0
 11
70.45000072025437
 21
731.3265379865035
 31
0.0
  0
LINE
  5
1E5
330
71
100
AcDbEntity
  8
1
  6
Continuous
 62
     2
100
AcDbLine
 10
70.45000072025437
 20
731.3265379865035
 30
0.0
 11
70.45000072025437
 21
736.3265379865036
 31
0.0
  0
LINE
  5
1E6
330
71
100
AcDbEntity
  8
1
  6
Continuous
 62
     2
100
AcDbLine
 10
70.45000072025437
 20
731.3265379865035
 30
0.0
 11
120.4500007202546
 21
731.3265379865035
 31
0.0
  0
LINE
  5
1E7
330
71
100
AcDbEntity
  8
1
  6
Continuous
 62
     2
100
AcDbLine
 10
120.4500007202546
 20
731.3265379865035
 30
0.0
 11
120.4500007202546
 21
736.3265379865036
 31
0.0
  0
LINE
  5
1E8
330
71
100
AcDbEntity
  8
1
  6
Continuous
 62
     2
100
AcDbLine
 10
120.4500007202546
 20
731.3265379865035
 30
0.0
 11
170.4500007202546
 21
731.3265379865035
 31
0.0
  0
LINE
  5
1E9
330
71
100
AcDbEntity
  8
1
  6
Continuous
 62
     2
100
AcDbLine
 10
170.4500007202546
 20
731.3265379865035
 30
0.0
 11
170.4500007202546
 21
736.3265379865036
 31
0.0
  0
LINE
  5
1EA
330
71
100
AcDbEntity
  8
1
  6
Continuous
 62
     2
100
AcDbLine
 10
220.4500007202546
 20
731.3265379865035
 30
0.0
 11
220.4500007202546
 21
736.3265379865036
 31
0.0
  0
LINE
  5
1EB
330
71
100
AcDbEntity
  8
1
  6
Continuous
 62
     2
100
AcDbLine
 10
220.4500007202546
 20
731.3265379865035
 30
0.0
 11
170.4500007202546
 21
731.3265379865035
 31
0.0
  0
LINE
  5
1EC
330
71
100
AcDbEntity
  8
1
  6
Continuous
 62
     2
100
AcDbLine
 10
-23.04999927974353
 20
736.3265379865036
 30
0.0
 11
-23.04999927974353
 21
731.3265379865035
 31
0.0
  0
LINE
  5
1ED
330
71
100
AcDbEntity
  8
1
  6
Continuous
 62
     2
100
AcDbLine
 10
-23.04999927974353
 20
731.3265379865035
 30
0.0
 11
20.45000072025459
 21
731.3265379865035
 31
0.0
  0
LINE
  5
1EE
330
71
100
AcDbEntity
  8
1
  6
Continuous
 62
     2
100
AcDbLine
 10
-23.04999927974353
 20
736.3265379865036
 30
0.0
 11
-28.0499992797445
 21
736.3265379865036
 31
0.0
  0
LINE
  5
1EF
330
71
100
AcDbEntity
  8
1
  6
Continuous
 62
     2
100
AcDbLine
 10
-28.0499992797445
 20
736.3265379865036
 30
0.0
 11
-28.0499992797445
 21
731.3265379865035
 31
0.0
  0
LINE
  5
1F0
330
71
100
AcDbEntity
  8
1
  6
Continuous
 62
     6
100
AcDbLine
 10
263.9500007202546
 20
736.3265379865036
 30
0.0
 11
263.9500007202558
 21
744.8265379865036
 31
0.0
  0
LINE
  5
1F1
330
71
100
AcDbEntity
  8
1
  6
Continuous
 62
     6
100
AcDbLine
 10
170.8051961935045
 20
736.3265379865035
 30
0.0
 11
220.4500007202546
 21
736.3265379865036
 31
0.0
  0
LINE
  5
1F2
330
71
100
AcDbEntity
  8
1
  6
Continuous
 62
     6
100
AcDbLine
 10
18.15000072025435
 20
736.3265379865035
 30
0.0
 11
20.45000072025459
 21
736.3265379865036
 31
0.0
  0
LINE
  5
1F3
330
71
100
AcDbEntity
  8
1
  6
Continuous
 62
     6
100
AcDbLine
 10
120.4500007202546
 20
736.3265379865036
 30
0.0
 11
70.45000072025437
 21
736.3265379865036
 31
0.0
  0
LINE
  5
1F4
330
71
100
AcDbEntity
  8
1
  6
Continuous
 62
     7
100
AcDbLine
 10
134.4051961935046
 20
753.3265379865036
 30
0.0
 11
134.4051961935046
 21
740.5765379865035
 31
0.0
  0
LINE
  5
1F5
330
71
100
AcDbEntity
  8
1
  6
Continuous
 62
     7
100
AcDbLine
 10
170.8051961935045
 20
753.3265379865036
 30
0.0
 11
170.8051961935045
 21
740.5765379865036
 31
0.0
  0
LINE
  5
1F6
330
71
100
AcDbEntity
  8
1
  6
Continuous
 62
     6
100
AcDbLine
 10
18.15000072025435
 20
736.3265379865035
 30
0.0
 11
11.95000072025636
 21
736.3265379865036
 31
0.0
  0
LINE
  5
1F7
330
71
100
AcDbEntity
  8
1
  6
Continuous
 62
     6
100
AcDbLine
 10
170.8051961935045
 20
736.3265379865035
 30
0.0
 11
170.4500007202546
 21
736.3265379865036
 31
0.0
  0
LINE
  5
1F8
330
71
100
AcDbEntity
  8
1
  6
Continuous
 62
     6
100
AcDbLine
 10
263.9500007202563
 20
753.3265379865036
 30
0.0
 11
263.9500007202558
 21
744.8265379865036
 31
0.0
  0
LINE
  5
1F9
330
71
100
AcDbEntity
  8
1
  6
Continuous
 62
     6
100
AcDbLine
 10
11.95000072025636
 20
736.3265379865036
 30
0.0
 11
-23.04999927974353
 21
736.3265379865036
 31
0.0
  0
LINE
  5
1FA
330
71
100
AcDbEntity
  8
1
  6
Continuous
 62
     2
100
AcDbLine
 10
138.6418510800672
 20
758.7015379865035
 30
0.0
 11
143.6418510800672
 21
759.9515379865035
 31
0.0
  0
LINE
  5
1FB
330
71
100
AcDbEntity
  8
1
  6
Continuous
 62
     2
100
AcDbLine
 10
138.6418510800672
 20
756.2015379865035
 30
0.0
 11
138.6418510800672
 21
758.7015379865035
 31
0.0
  0
LINE
  5
1FC
330
71
100
AcDbEntity
  8
1
  6
Continuous
 62
     2
100
AcDbLine
 10
143.6418510800672
 20
754.9515379865035
 30
0.0
 11
138.6418510800672
 21
756.2015379865035
 31
0.0
  0
LINE
  5
1FD
330
71
100
AcDbEntity
  8
1
  6
Continuous
 62
     2
100
AcDbLine
 10
143.6418510800672
 20
759.9515379865035
 30
0.0
 11
143.6418510800672
 21
754.9515379865035
 31
0.0
  0
LINE
  5
1FE
330
71
100
AcDbEntity
  8
1
  6
Continuous
 62
     7
100
AcDbLine
 10
134.4051961935046
 20
740.5765379865035
 30
0.0
 11
152.6051961935046
 21
740.5765379865036
 31
0.0
  0
LINE
  5
1FF
330
71
100
AcDbEntity
  8
1
  6
Continuous
 62
     7
100
AcDbLine
 10
134.4051961935046
 20
740.5765379865035
 30
0.0
 11
134.4051961935046
 21
736.3265379865035
 31
0.0
  0
LINE
  5
200
330
71
100
AcDbEntity
  8
1
  6
Continuous
 62
     7
100
AcDbLine
 10
170.8051961935045
 20
740.5765379865036
 30
0.0
 11
170.8051961935045
 21
736.3265379865035
 31
0.0
  0
LINE
  5
201
330
71
100
AcDbEntity
  8
1
  6
Continuous
 62
     7
100
AcDbLine
 10
152.6051961935046
 20
740.5765379865036
 30
0.0
 11
152.6051961935046
 21
736.3265379865036
 31
0.0
  0
LINE
  5
202
330
71
100
AcDbEntity
  8
1
  6
Continuous
 62
     6
100
AcDbLine
 10
152.6051961935046
 20
736.3265379865036
 30
0.0
 11
134.4051961935046
 21
736.3265379865035
 31
0.0
  0
LINE
  5
203
330
71
100
AcDbEntity
  8
1
  6
Continuous
 62
     7
100
AcDbLine
 10
152.6051961935046
 20
740.5765379865036
 30
0.0
 11
170.8051961935045
 21
740.5765379865036
 31
0.0
  0
LINE
  5
204
330
71
100
AcDbEntity
  8
1
  6
Continuous
 62
     6
100
AcDbLine
 10
134.4051961935046
 20
761.8265379865036
 30
0.0
 11
263.9500007202563
 21
761.8265379865036
 31
0.0
  0
ARC
  5
205
102
{ACAD_REACTORS
330
26D
330
26E
102
}
330
71
100
AcDbEntity
  8
0
  6
Continuous
 62
     2
100
AcDbCircle
 10
149.7968441924646
 20
745.1469427484252
 30
0.0
 40
0.7717997786797298
100
AcDbArc
 50
321.8795802028384
 51
38.12041979715494
  0
ARC
  5
206
102
{ACAD_REACTORS
330
26D
330
26E
102
}
330
71
100
AcDbEntity
  8
0
  6
Continuous
 62
     2
100
AcDbCircle
 10
149.996584228811
 20
744.9902115703052
 30
0.0
 40
0.5179085730137529
100
AcDbArc
 50
218.1204197971956
 51
321.8795802027985
  0
ARC
  5
207
102
{ACAD_REACTORS
330
26D
330
26E
102
}
330
71
100
AcDbEntity
  8
0
  6
Continuous
 62
     2
100
AcDbCircle
 10
150.1963242651571
 20
745.1469427484252
 30
0.0
 40
0.7717997786794808
100
AcDbArc
 50
141.8795802028346
 51
218.120419797172
  0
ARC
  5
208
102
{ACAD_REACTORS
330
26D
330
26E
102
}
330
71
100
AcDbEntity
  8
0
  6
Continuous
 62
     2
100
AcDbCircle
 10
149.996584228811
 20
745.3036739265457
 30
0.0
 40
0.5179085730133349
100
AcDbArc
 50
38.12041979715197
 51
141.8795802028538
  0
ARC
  5
209
102
{ACAD_REACTORS
330
265
330
266
102
}
330
71
100
AcDbEntity
  8
0
  6
Continuous
 62
     2
100
AcDbCircle
 10
146.9345700932471
 20
743.736476383017
 30
0.0
 40
2.227384008973468
100
AcDbArc
 50
58.06909105003972
 51
71.5519238818663
  0
ARC
  5
20A
102
{ACAD_REACTORS
330
265
330
266
102
}
330
71
100
AcDbEntity
  8
0
  6
Continuous
 62
     2
100
AcDbCircle
 10
147.1962977942059
 20
745.3520141777642
 30
0.0
 40
0.511580060194863
100
AcDbArc
 50
113.3722778882033
 51
151.4785267423044
  0
ARC
  5
20B
102
{ACAD_REACTORS
330
265
330
266
102
}
330
71
100
AcDbEntity
  8
0
  6
Continuous
 62
     2
100
AcDbCircle
 10
147.5736550522862
 20
745.1469427484252
 30
0.0
 40
0.9410597353332545
100
AcDbArc
 50
151.4785267422669
 51
208.5214732577088
  0
ARC
  5
20C
102
{ACAD_REACTORS
330
265
330
266
102
}
330
71
100
AcDbEntity
  8
0
  6
Continuous
 62
     2
100
AcDbCircle
 10
146.7766972181542
 20
748.4596236936816
 30
0.0
 40
4.852596863498166
100
AcDbArc
 50
275.1581447696249
 51
285.979991258353
  0
ARC
  5
20D
102
{ACAD_REACTORS
330
265
330
266
102
}
330
71
100
AcDbEntity
  8
0
  6
Continuous
 62
     2
100
AcDbCircle
 10
147.0655533128901
 20
745.25973311046
 30
0.0
 40
1.639695123939422
100
AcDbArc
 50
195.0618917770903
 51
275.1581447696393
  0
ARC
  5
20E
102
{ACAD_REACTORS
330
265
330
266
102
}
330
71
100
AcDbEntity
  8
0
  6
Continuous
 62
     2
100
AcDbCircle
 10
146.6464254694273
 20
745.1469427484252
 30
0.0
 40
1.205656168390957
100
AcDbArc
 50
164.9381082228794
 51
195.0618917770945
  0
ARC
  5
20F
102
{ACAD_REACTORS
330
265
330
266
102
}
330
71
100
AcDbEntity
  8
0
  6
Continuous
 62
     2
100
AcDbCircle
 10
147.0655533128901
 20
745.0341523863902
 30
0.0
 40
1.639695123940563
100
AcDbArc
 50
84.84185523036254
 51
164.9381082228867
  0
ARC
  5
210
102
{ACAD_REACTORS
330
269
330
26A
102
}
330
71
100
AcDbEntity
  8
0
  6
Continuous
 62
     2
100
AcDbCircle
 10
142.2355390587282
 20
746.1807695427794
 30
0.0
 40
0.3157169230765842
100
AcDbArc
 50
115.3740086783474
 51
180.0
  0
ARC
  5
211
102
{ACAD_REACTORS
330
269
330
26A
102
}
330
71
100
AcDbEntity
  8
0
  6
Continuous
 62
     2
100
AcDbCircle
 10
142.2355390587282
 20
748.3990527427156
 30
0.0
 40
0.315716923076792
100
AcDbArc
 50
180.0
 51
244.6259913216437
  0
ARC
  5
212
102
{ACAD_REACTORS
330
269
330
26A
102
}
330
71
100
AcDbEntity
  8
0
  6
Continuous
 62
     2
100
AcDbCircle
 10
142.2411551940382
 20
747.3017530836534
 30
0.0
 40
2.018561131933266
100
AcDbArc
 50
269.8110329575858
 51
90.18896704241416
  0
ARC
  5
213
102
{ACAD_REACTORS
330
269
330
26A
102
}
330
71
100
AcDbEntity
  8
0
  6
Continuous
 62
     2
100
AcDbCircle
 10
142.2355390587282
 20
745.5989181360844
 30
0.0
 40
0.315716923076792
100
AcDbArc
 50
180.0
 51
269.8110329574542
  0
ARC
  5
214
102
{ACAD_REACTORS
330
267
330
268
102
}
330
71
100
AcDbEntity
  8
0
  6
Continuous
 62
     2
100
AcDbCircle
 10
163.2989992734588
 20
745.3520141777642
 30
0.0
 40
0.5115800601944143
100
AcDbArc
 50
109.3371432194853
 51
151.4785267424197
  0
ARC
  5
215
102
{ACAD_REACTORS
330
267
330
268
102
}
330
71
100
AcDbEntity
  8
0
  6
Continuous
 62
     2
100
AcDbCircle
 10
163.2989992734588
 20
744.9418713190867
 30
0.0
 40
0.5115800601959944
100
AcDbArc
 50
208.521473257681
 51
246.6277221118424
  0
ARC
  5
216
102
{ACAD_REACTORS
330
267
330
268
102
}
330
71
100
AcDbEntity
  8
0
  6
Continuous
 62
     2
100
AcDbCircle
 10
162.7491269486814
 20
745.1469427484252
 30
0.0
 40
1.205656168392988
100
AcDbArc
 50
164.9381082229054
 51
195.0618917770946
  0
ARC
  5
217
102
{ACAD_REACTORS
330
267
330
268
102
}
330
71
100
AcDbEntity
  8
0
  6
Continuous
 62
     2
100
AcDbCircle
 10
163.168254792143
 20
745.0341523863902
 30
0.0
 40
1.639695123940214
100
AcDbArc
 50
90.0
 51
164.9381082228947
  0
ARC
  5
218
102
{ACAD_REACTORS
330
26B
330
26C
102
}
330
71
100
AcDbEntity
  8
0
  6
Continuous
 62
     2
100
AcDbCircle
 10
153.7412596994393
 20
748.5061332245995
 30
0.0
 40
1.526904761905939
100
AcDbArc
 50
90.0
 51
270.0
  0
ARC
  5
219
102
{ACAD_REACTORS
330
26F
330
270
102
}
330
71
100
AcDbEntity
  8
0
  6
Continuous
 62
     2
100
AcDbCircle
 10
146.9985689542135
 20
749.0170683163942
 30
0.0
 40
0.3528638246712035
100
AcDbArc
 50
270.0
 51
90.0
  0
ARC
  5
21A
102
{ACAD_REACTORS
330
269
330
26A
102
}
330
71
100
AcDbEntity
  8
0
  6
Continuous
 62
     2
100
AcDbCircle
 10
139.6599903721965
 20
749.0047655078706
 30
0.0
 40
0.3157169230761383
100
AcDbArc
 50
90.0
 51
180.0
  0
ARC
  5
21B
102
{ACAD_REACTORS
330
269
330
26A
102
}
330
71
100
AcDbEntity
  8
0
  6
Continuous
 62
     2
100
AcDbCircle
 10
141.6584080807811
 20
747.2899111427479
 30
0.0
 40
0.9118975235575889
100
AcDbArc
 50
115.194410648529
 51
244.8055893514862
  0
ARC
  5
21C
102
{ACAD_REACTORS
330
269
330
26A
102
}
330
71
100
AcDbEntity
  8
0
  6
Continuous
 62
     2
100
AcDbCircle
 10
141.1358236332061
 20
746.1790813966851
 30
0.0
 40
0.3157169230766215
100
AcDbArc
 50
0.0
 51
64.80558935146
  0
ARC
  5
21D
102
{ACAD_REACTORS
330
269
330
26A
102
}
330
71
100
AcDbEntity
  8
0
  6
Continuous
 62
     2
100
AcDbCircle
 10
139.06609569545
 20
744.0442826019032
 30
0.0
 40
0.4242446153828041
100
AcDbArc
 50
180.0
 51
270.0
  0
ARC
  5
21E
102
{ACAD_REACTORS
330
26B
330
26C
102
}
330
71
100
AcDbEntity
  8
0
  6
Continuous
 62
     2
100
AcDbCircle
 10
153.9575317096045
 20
748.66286440272
 30
0.0
 40
0.5179085730135616
100
AcDbArc
 50
38.12041979714829
 51
141.879580202844
  0
ARC
  5
21F
102
{ACAD_REACTORS
330
26B
330
26C
102
}
330
71
100
AcDbEntity
  8
0
  6
Continuous
 62
     2
100
AcDbCircle
 10
154.1572717459508
 20
748.5061332245995
 30
0.0
 40
0.7717997786797075
100
AcDbArc
 50
141.8795802028371
 51
218.1204197971562
  0
ARC
  5
220
102
{ACAD_REACTORS
330
26D
330
26E
102
}
330
71
100
AcDbEntity
  8
0
  6
Continuous
 62
     2
100
AcDbCircle
 10
149.996584228811
 20
745.6855177587285
 30
0.0
 40
2.065479772208446
100
AcDbArc
 50
242.4518518243384
 51
297.5481481756882
  0
ARC
  5
221
102
{ACAD_REACTORS
330
26D
330
26E
102
}
330
71
100
AcDbEntity
  8
0
  6
Continuous
 62
     2
100
AcDbCircle
 10
149.996584228811
 20
744.6083677381224
 30
0.0
 40
2.065479772208543
100
AcDbArc
 50
62.451851824306
 51
117.5481481756674
  0
ARC
  5
222
102
{ACAD_REACTORS
330
26D
330
26E
102
}
330
71
100
AcDbEntity
  8
0
  6
Continuous
 62
     2
100
AcDbCircle
 10
149.7156443369777
 20
745.1469427484252
 30
0.0
 40
1.458034083651478
100
AcDbArc
 50
117.5481481756639
 51
242.451851824336
  0
ARC
  5
223
102
{ACAD_REACTORS
330
26D
330
26E
102
}
330
71
100
AcDbEntity
  8
0
  6
Continuous
 62
     2
100
AcDbCircle
 10
150.2775241206443
 20
745.1469427484252
 30
0.0
 40
1.458034083651977
100
AcDbArc
 50
297.5481481757016
 51
62.45185182429842
  0
ARC
  5
224
102
{ACAD_REACTORS
330
26B
330
26C
102
}
330
71
100
AcDbEntity
  8
0
  6
Continuous
 62
     2
100
AcDbCircle
 10
153.9575317096045
 20
748.3494020464791
 30
0.0
 40
0.5179085730134722
100
AcDbArc
 50
218.120419797156
 51
321.8795802028517
  0
ARC
  5
225
102
{ACAD_REACTORS
330
26B
330
26C
102
}
330
71
100
AcDbEntity
  8
0
  6
Continuous
 62
     2
100
AcDbCircle
 10
153.7577916732583
 20
748.5061332245995
 30
0.0
 40
0.7717997786796373
100
AcDbArc
 50
321.8795802028437
 51
38.12041979716289
  0
ARC
  5
226
102
{ACAD_REACTORS
330
269
330
26A
102
}
330
71
100
AcDbEntity
  8
0
  6
Continuous
 62
     2
100
AcDbCircle
 10
144.5394077861668
 20
744.0442826019032
 30
0.0
 40
0.4242446153832589
100
AcDbArc
 50
270.0
 51
0.0
  0
ARC
  5
227
102
{ACAD_REACTORS
330
269
330
26A
102
}
330
71
100
AcDbEntity
  8
0
  6
Continuous
 62
     2
100
AcDbCircle
 10
144.5394077861668
 20
749.6087933711034
 30
0.0
 40
0.4242446153838841
100
AcDbArc
 50
0.0
 51
90.0
  0
ARC
  5
228
102
{ACAD_REACTORS
330
269
330
26A
102
}
330
71
100
AcDbEntity
  8
0
  6
Continuous
 62
     2
100
AcDbCircle
 10
139.06609569545
 20
749.6087933711034
 30
0.0
 40
0.4242446153838273
100
AcDbArc
 50
90.0
 51
180.0
  0
ARC
  5
229
102
{ACAD_REACTORS
330
269
330
26A
102
}
330
71
100
AcDbEntity
  8
0
  6
Continuous
 62
     2
100
AcDbCircle
 10
141.1358236332061
 20
744.6483104651535
 30
0.0
 40
0.3157169230767067
100
AcDbArc
 50
270.0
 51
0.0
  0
ARC
  5
22A
102
{ACAD_REACTORS
330
269
330
26A
102
}
330
71
100
AcDbEntity
  8
0
  6
Continuous
 62
     2
100
AcDbCircle
 10
141.1358236332061
 20
748.4007408888101
 30
0.0
 40
0.3157169230761838
100
AcDbArc
 50
295.19441064854
 51
0.0
  0
ARC
  5
22B
102
{ACAD_REACTORS
330
269
330
26A
102
}
330
71
100
AcDbEntity
  8
0
  6
Continuous
 62
     2
100
AcDbCircle
 10
141.1358236332061
 20
749.0047655078706
 30
0.0
 40
0.3157169230766215
100
AcDbArc
 50
0.0
 51
90.0
  0
ARC
  5
22C
102
{ACAD_REACTORS
330
269
330
26A
102
}
330
71
100
AcDbEntity
  8
0
  6
Continuous
 62
     2
100
AcDbCircle
 10
139.6599903721965
 20
744.6483104651535
 30
0.0
 40
0.3157169230756836
100
AcDbArc
 50
180.0
 51
270.0
  0
ARC
  5
22D
102
{ACAD_REACTORS
330
26F
330
270
102
}
330
71
100
AcDbEntity
  8
0
  6
Continuous
 62
     2
100
AcDbCircle
 10
147.4400414804519
 20
748.9776723451716
 30
0.0
 40
1.055365641333651
100
AcDbArc
 50
270.0
 51
90.0
  0
ARC
  5
22E
102
{ACAD_REACTORS
330
267
330
268
102
}
330
71
100
AcDbEntity
  8
0
  6
Continuous
 62
     2
100
AcDbCircle
 10
163.168254792143
 20
745.25973311046
 30
0.0
 40
1.639695123940421
100
AcDbArc
 50
195.0618917771015
 51
275.1581447696771
  0
ARC
  5
22F
102
{ACAD_REACTORS
330
267
330
268
102
}
330
71
100
AcDbEntity
  8
0
  6
Continuous
 62
     2
100
AcDbCircle
 10
162.8793986974072
 20
748.4596236936816
 30
0.0
 40
4.852596863498825
100
AcDbArc
 50
275.1581447696364
 51
285.9799912583383
  0
ARC
  5
230
102
{ACAD_REACTORS
330
267
330
268
102
}
330
71
100
AcDbEntity
  8
0
  6
Continuous
 62
     2
100
AcDbCircle
 10
163.0372715725
 20
746.5574091138333
 30
0.0
 40
2.227384008972719
100
AcDbArc
 50
288.4480761181337
 51
301.9309089499395
  0
ARC
  5
231
102
{ACAD_REACTORS
330
267
330
268
102
}
330
71
100
AcDbEntity
  8
0
  6
Continuous
 62
     2
100
AcDbCircle
 10
163.4554393061619
 20
745.3038633377967
 30
0.0
 40
0.9059297849852278
100
AcDbArc
 50
246.6277221118168
 51
288.4480761180828
  0
ARC
  5
232
102
{ACAD_REACTORS
330
267
330
268
102
}
330
71
100
AcDbEntity
  8
0
  6
Continuous
 62
     2
100
AcDbCircle
 10
163.6763565315402
 20
745.1469427484252
 30
0.0
 40
0.941059735334906
100
AcDbArc
 50
151.4785267423609
 51
208.5214732576695
  0
ARC
  5
233
102
{ACAD_REACTORS
330
267
330
268
102
}
330
71
100
AcDbEntity
  8
0
  6
Continuous
 62
     2
100
AcDbCircle
 10
163.4456692715625
 20
744.9340591973813
 30
0.0
 40
0.9545230068260935
100
AcDbArc
 50
90.0
 51
109.337143219432
  0
ARC
  5
234
102
{ACAD_REACTORS
330
269
330
26A
102
}
330
71
100
AcDbEntity
  8
0
  6
Continuous
 62
     2
100
AcDbCircle
 10
142.2355390587282
 20
749.0045880312225
 30
0.0
 40
0.3157169230760142
100
AcDbArc
 50
90.18896704254595
 51
180.0
  0
ARC
  5
235
102
{ACAD_REACTORS
330
269
330
26A
102
}
330
71
100
AcDbEntity
  8
0
  6
Continuous
 62
     2
100
AcDbCircle
 10
141.7094963606403
 20
747.2899111427479
 30
0.0
 40
0.9118481501444455
100
AcDbArc
 50
295.3740086781789
 51
64.62599132180586
  0
ARC
  5
236
102
{ACAD_REACTORS
330
265
330
266
102
}
330
71
100
AcDbEntity
  8
0
  6
Continuous
 62
     2
100
AcDbCircle
 10
146.9345700932471
 20
746.5574091138338
 30
0.0
 40
2.227384008972719
100
AcDbArc
 50
288.4480761181337
 51
301.9309089499603
  0
ARC
  5
237
102
{ACAD_REACTORS
330
265
330
266
102
}
330
71
100
AcDbEntity
  8
0
  6
Continuous
 62
     2
100
AcDbCircle
 10
147.3527378269079
 20
745.3038633377967
 30
0.0
 40
0.9059297849848783
100
AcDbArc
 50
246.627722111868
 51
288.448076118159
  0
ARC
  5
238
102
{ACAD_REACTORS
330
265
330
266
102
}
330
71
100
AcDbEntity
  8
0
  6
Continuous
 62
     2
100
AcDbCircle
 10
147.1962977942059
 20
744.9418713190867
 30
0.0
 40
0.5115800601948034
100
AcDbArc
 50
208.5214732576956
 51
246.6277221118219
  0
ARC
  5
239
102
{ACAD_REACTORS
330
265
330
266
102
}
330
71
100
AcDbEntity
  8
0
  6
Continuous
 62
     2
100
AcDbCircle
 10
147.3527378269079
 20
744.9900221590535
 30
0.0
 40
0.9059297849853768
100
AcDbArc
 50
71.55192388185462
 51
113.3722778881292
  0
ARC
  5
23A
102
{ACAD_REACTORS
330
265
330
266
102
}
330
71
100
AcDbEntity
  8
0
  6
Continuous
 62
     2
100
AcDbCircle
 10
146.7766972181542
 20
741.8342618031693
 30
0.0
 40
4.85259686349804
100
AcDbArc
 50
74.02000874164729
 51
84.84185523037509
  0
CIRCLE
  5
23B
102
{ACAD_REACTORS
330
269
330
26A
102
}
330
71
100
AcDbEntity
  8
0
  6
Continuous
 62
     2
100
AcDbCircle
 10
141.6856813459675
 20
747.2899111427479
 30
0.0
 40
0.470978932778479
  0
CIRCLE
  5
23C
330
71
100
AcDbEntity
  8
1
  6
Continuous
 62
     2
100
AcDbCircle
 10
147.1418510800672
 20
757.4515379865035
 30
0.0
 40
1.249999999999915
  0
CIRCLE
  5
23D
330
71
100
AcDbEntity
  8
1
  6
Continuous
 62
     2
100
AcDbCircle
 10
147.1418510800672
 20
757.4515379865035
 30
0.0
 40
2.5
  0
TEXT
  5
23E
330
71
100
AcDbEntity
  8
1
 62
     7
100
AcDbText
 10
189.7787439155184
 20
754.6265379865035
 30
0.0
 40
2.5
  1
/
 41
0.9
  7
CONVERTER_11
100
AcDbText
  0
TEXT
  5
240
330
71
100
AcDbEntity
  8
1
 62
     7
100
AcDbText
 10
191.9351084125604
 20
754.6265379865035
 30
0.0
 40
2.5
  1
01
 41
0.81
  7
CONVERTER_12
100
AcDbText
  0
TEXT
  5
241
330
71
100
AcDbEntity
  8
1
 62
     3
100
AcDbText
 10
229.5315924385775
 20
754.6265379865035
 30
0.0
 40
2.5
  1
26.03.2018
 41
0.81
  7
CONVERTER_12
100
AcDbText
  0
MTEXT
  5
242
330
71
100
AcDbEntity
  8
1
 62
     2
100
AcDbMText
 10
229.5315924385775
 20
760.8265379865035
 30
0.0
 40
1.8
 41
0.0
 71
     1
 72
     1
  1
date
  7
CONVERTER_11
 73
     1
 44
1.32052821128451
  0
MTEXT
  5
243
330
71
100
AcDbEntity
  8
1
 62
     2
100
AcDbMText
 10
199.7051961935046
 20
752.3265379865035
 30
0.0
 40
1.8
 41
0.0
 71
     1
 72
     1
  1
document-type
  7
CONVERTER_11
 73
     1
 44
1.20048019207683
  0
TEXT
  5
244
330
71
100
AcDbEntity
  8
1
 62
     3
100
AcDbText
 10
199.7051961935046
 20
746.1265379865035
 30
0.0
 40
2.5
  1
TECDOC 2D_Productdrawing
 41
0.81
  7
CONVERTER_12
100
AcDbText
  0
MTEXT
  5
246
330
71
100
AcDbEntity
  8
1
 62
     2
100
AcDbMText
 10
171.9051961935046
 20
760.8265379865036
 30
0.0
 40
1.8
 41
0.0
 71
     1
 72
     1
  1
document-No. / RI
  7
CONVERTER_13
 73
     1
 44
1.32052821128451
  0
TEXT
  5
247
330
71
100
AcDbEntity
  8
1
 62
     7
100
AcDbText
 10
171.9051961935046
 20
754.6265379865035
 30
0.0
 40
2.5
  1
40209803
 41
0.81
  7
CONVERTER_12
100
AcDbText
  0
MTEXT
  5
249
330
71
100
AcDbEntity
  8
1
 62
     3
100
AcDbMText
 10
259.4907965794169
 20
754.6265379865036
 30
0.0
 40
2.5
 41
0.0
 71
     8
 72
     1
  1
1:1
  7
CONVERTER_14
 73
     1
 44
1.32052821128451
  0
MTEXT
  5
24A
330
71
100
AcDbEntity
  8
1
 62
     2
100
AcDbMText
 10
256.1315924385773
 20
760.8265379865036
 30
0.0
 40
1.8
 41
0.0
 71
     1
 72
     1
  1
scale
  7
CONVERTER_11
 73
     1
 44
1.20048019207683
  0
MTEXT
  5
24B
330
71
100
AcDbEntity
  8
1
 62
     2
100
AcDbMText
 10
171.9051961935046
 20
752.3265379865036
 30
0.0
 40
1.8
 41
0.0
 71
     1
 72
     1
  1
ident.-No.
  7
CONVERTER_11
 73
     1
 44
1.20048019207683
  0
TEXT
  5
24C
330
71
100
AcDbEntity
  8
1
 62
     7
100
AcDbText
 10
172.3051961935043
 20
746.1265379865035
 30
0.0
 40
2.5
  1
3034426
 41
0.81
  7
CONVERTER_12
100
AcDbText
  0
MTEXT
  5
24D
330
71
100
AcDbEntity
  8
1
 62
     2
100
AcDbMText
 10
99.96718146845706
 20
749.0765379865035
 30
0.0
 40
2.0
 41
0.0
 71
     5
 72
     1
  1
General Information\P- Simplified representation\P- Document excluded from change process\P- Linear dimensions [mm]
  7
CONVERTER_11
 73
     1
 44
1.20048019207683
  0
MTEXT
  5
24E
330
71
100
AcDbEntity
  8
1
 62
     7
100
AcDbMText
 10
266.4500007202536
 20
811.3265379865055
 30
0.0
 40
3.5
 41
0.0
 71
     5
 72
     1
  1
C
  7
CONVERTER_11
 73
     1
 44
1.20048019207683
  0
MTEXT
  5
24F
330
71
100
AcDbEntity
  8
1
 62
     7
100
AcDbMText
 10
266.4500007202536
 20
913.8265379865036
 30
0.0
 40
3.5
 41
0.0
 71
     5
 72
     1
  1
A
  7
CONVERTER_11
 73
     1
 44
1.20048019207683
  0
MTEXT
  5
250
330
71
100
AcDbEntity
  8
1
 62
     7
100
AcDbMText
 10
266.4500007202536
 20
861.3265379865055
 30
0.0
 40
3.5
 41
0.0
 71
     5
 72
     1
  1
B
  7
CONVERTER_11
 73
     1
 44
1.20048019207683
  0
MTEXT
  5
251
330
71
100
AcDbEntity
  8
1
 62
     7
100
AcDbMText
 10
266.4500007202536
 20
758.8265379865036
 30
0.0
 40
3.5
 41
0.0
 71
     5
 72
     1
  1
D
  7
CONVERTER_11
 73
     1
 44
1.20048019207683
  0
MTEXT
  5
252
330
71
100
AcDbEntity
  8
1
 62
     7
100
AcDbMText
 10
-3.79999927974501
 20
733.8265379865035
 30
0.0
 40
3.5
 41
0.0
 71
     5
 72
     1
  1
1
  7
CONVERTER_11
 73
     1
 44
1.20048019207683
  0
MTEXT
  5
253
330
71
100
AcDbEntity
  8
1
 62
     7
100
AcDbMText
 10
45.45000072025459
 20
733.8265379865035
 30
0.0
 40
3.5
 41
0.0
 71
     5
 72
     1
  1
2
  7
CONVERTER_11
 73
     1
 44
1.20048019207683
  0
MTEXT
  5
254
330
71
100
AcDbEntity
  8
1
 62
     7
100
AcDbMText
 10
95.4500007202546
 20
733.8265379865035
 30
0.0
 40
3.5
 41
0.0
 71
     5
 72
     1
  1
3
  7
CONVERTER_11
 73
     1
 44
1.20048019207683
  0
MTEXT
  5
255
330
71
100
AcDbEntity
  8
1
 62
     7
100
AcDbMText
 10
145.4500007202545
 20
733.8265379865035
 30
0.0
 40
3.5
 41
0.0
 71
     5
 72
     1
  1
4
  7
CONVERTER_11
 73
     1
 44
1.20048019207683
  0
MTEXT
  5
256
330
71
100
AcDbEntity
  8
1
 62
     7
100
AcDbMText
 10
195.4500007202546
 20
733.8265379865035
 30
0.0
 40
3.5
 41
0.0
 71
     5
 72
     1
  1
5
  7
CONVERTER_11
 73
     1
 44
1.20048019207683
  0
MTEXT
  5
257
330
71
100
AcDbEntity
  8
1
 62
     7
100
AcDbMText
 10
244.7000007202538
 20
733.8265379865035
 30
0.0
 40
3.5
 41
0.0
 71
     5
 72
     1
  1
6
  7
CONVERTER_11
 73
     1
 44
1.20048019207683
  0
MTEXT
  5
258
330
71
100
AcDbEntity
  8
1
 62
     7
100
AcDbMText
 10
-25.5499992797445
 20
913.8265379865036
 30
0.0
 40
3.5
 41
0.0
 71
     5
 72
     1
  1
A
  7
CONVERTER_11
 73
     1
 44
1.20048019207683
  0
MTEXT
  5
259
330
71
100
AcDbEntity
  8
1
 62
     7
100
AcDbMText
 10
-25.5499992797445
 20
861.3265379865036
 30
0.0
 40
3.5
 41
0.0
 71
     5
 72
     1
  1
B
  7
CONVERTER_11
 73
     1
 44
1.20048019207683
  0
MTEXT
  5
25A
330
71
100
AcDbEntity
  8
1
 62
     7
100
AcDbMText
 10
-25.5499992797445
 20
811.3265379865036
 30
0.0
 40
3.5
 41
0.0
 71
     5
 72
     1
  1
C
  7
CONVERTER_11
 73
     1
 44
1.20048019207683
  0
MTEXT
  5
25B
330
71
100
AcDbEntity
  8
1
 62
     7
100
AcDbMText
 10
-25.5499992797445
 20
758.8265379865036
 30
0.0
 40
3.5
 41
0.0
 71
     5
 72
     1
  1
D
  7
CONVERTER_11
 73
     1
 44
1.20048019207683
  0
MTEXT
  5
25C
330
71
100
AcDbEntity
  8
1
 62
     3
100
AcDbMText
 10
160.6051961935045
 20
757.4515379865036
 30
0.0
 40
2.5
 41
0.0
 71
     5
 72
     1
  1
DIN A4
  7
CONVERTER_11
 73
     1
 44
1.20048019207683
  0
MTEXT
  5
25D
330
71
100
AcDbEntity
  8
1
 62
     2
100
AcDbMText
 10
171.8051961935045
 20
743.8265379865036
 30
0.0
 40
1.8
 41
0.0
 71
     1
 72
     1
  1
description
  7
CONVERTER_11
 73
     1
 44
1.20048019207683
  0
MTEXT
  5
25E
330
71
100
AcDbEntity
  8
1
 62
     7
100
AcDbMText
 10
217.3775984568801
 20
739.5765379865038
 30
0.0
 40
3.0
 41
0.0
 71
     5
 72
     1
  1
D-DTME 6
  7
CONVERTER_12
 73
     1
 44
1.20048019207683
  0
TEXT
  5
25F
330
71
100
AcDbEntity
  8
1
 62
     2
100
AcDbText
 10
158.8405050033181
 20
737.5765379865035
 30
0.0
 40
1.8
  1
1
 41
0.9
  7
CONVERTER_11
100
AcDbText
  0
TEXT
  5
260
330
71
100
AcDbEntity
  8
1
 62
     2
100
AcDbText
 10
144.0514611638466
 20
737.5272893327016
 30
0.0
 40
1.8
  1
1
 41
0.9
  7
CONVERTER_11
100
AcDbText
  0
TEXT
  5
261
330
71
100
AcDbEntity
  8
1
 62
     2
100
AcDbText
 10
135.4051961935046
 20
737.5675207715119
 30
0.0
 40
1.8
  1
page
 41
0.9
  7
CONVERTER_11
100
AcDbText
  0
TEXT
  5
262
330
71
100
AcDbEntity
  8
1
 62
     2
100
AcDbText
 10
153.6051961935044
 20
737.5675207715119
 30
0.0
 40
1.8
  1
of
 41
0.9
  7
CONVERTER_11
100
AcDbText
  0
MTEXT
  5
263
330
71
100
AcDbEntity
  8
1
 62
     3
100
AcDbMText
 10
159.8081783451145
 20
923.1178461418024
 30
0.0
 40
1.8
 41
0.0
 71
     7
 72
     1
  3
Transfer or duplication of this document as well as the utilisation or\Pcommunication of its content are not permitted unless express consent\Pis granted. Violations give rise to claims for damages. All rights reserved\Pin case of patent, utility mo
  1
del or design patent registrations.
  7
CONVERTER_11
 73
     1
 44
0.99639855942377
  0
MTEXT
  5
264
330
71
100
AcDbEntity
  8
1
 62
     3
100
AcDbMText
 10
-23.04493149367363
 20
923.1178461418024
 30
0.0
 40
1.8
 41
0.0
 71
     7
 72
     1
  3
Weitergabe sowie Vervielf\U+00e4ltigung dieses Dokuments, Verwertung und \PMitteilung seines Inhalts sind verboten, soweit nicht ausdr\U+00fccklich gestattet. \PZuwiderhandlungen verpflichten zu Schadenersatz. Alle Rechte f\U+00fcr den Fall\Pder Pat
  1
ent-, Gebrauchsmuster- oder Designeintragung vorbehalten.
  7
CONVERTER_11
 73
     1
 44
0.99639855942377
  0
HATCH
  5
265
330
71
100
AcDbEntity
  8
1
  6
Continuous
 62
     2
100
AcDbHatch
 10
0.0
 20
0.0
 30
0.0
210
0.0
220
0.0
230
1.0
  2
_USER
 70
     0
 71
     1
 91
        1
 92
        1
 93
       14
 72
     2
 10
146.6464254694273
 20
745.1469427484252
 40
1.205656168390957
 50
164.9381082228794
 51
195.0618917770945
 73
     1
 72
     2
 10
147.0655533128901
 20
745.25973311046
 40
1.639695123939422
 50
195.0618917770903
 51
275.1581447696393
 73
     1
 72
     2
 10
146.7766972181542
 20
748.4596236936816
 40
4.852596863498166
 50
275.1581447696249
 51
285.979991258353
 73
     1
 72
     1
 10
148.112625135272
 20
743.7945413878808
 11
148.112625135272
 21
744.667058394684
 72
     2
 10
146.9345700932471
 20
746.5574091138338
 40
2.227384008972719
 50
58.06909105003973
 51
71.55192388186632
 73
     0
 72
     2
 10
147.3527378269079
 20
745.3038633377967
 40
0.9059297849848783
 50
71.55192388184098
 51
113.372277888132
 73
     0
 72
     2
 10
147.1962977942059
 20
744.9418713190867
 40
0.5115800601948034
 50
113.3722778881781
 51
151.4785267423044
 73
     0
 72
     2
 10
147.5736550522862
 20
745.1469427484252
 40
0.9410597353332545
 50
151.4785267422912
 51
208.5214732577331
 73
     0
 72
     2
 10
147.1962977942059
 20
745.3520141777642
 40
0.511580060194863
 50
208.5214732576956
 51
246.6277221117967
 73
     0
 72
     2
 10
147.3527378269079
 20
744.9900221590535
 40
0.9059297849853768
 50
246.6277221118708
 51
288.4480761181454
 73
     0
 72
     2
 10
146.9345700932471
 20
743.736476383017
 40
2.227384008973468
 50
288.4480761181337
 51
301.9309089499603
 73
     0
 72
     1
 10
148.112625135272
 20
745.6268271021669
 11
148.112625135272
 21
746.4993441089701
 72
     2
 10
146.7766972181542
 20
741.8342618031693
 40
4.85259686349804
 50
74.02000874164729
 51
84.84185523037509
 73
     1
 72
     2
 10
147.0655533128901
 20
745.0341523863902
 40
1.639695123940563
 50
84.84185523036254
 51
164.9381082228867
 73
     1
 97
       14
330
23A
330
153
330
209
330
239
330
20A
330
20B
330
238
330
237
330
236
330
154
330
20C
330
20D
330
20E
330
20F
 75
     1
 76
     0
 52
45.0
 41
0.1
 77
     0
 78
     1
 53
45.0
 43
0.0
 44
0.0
 45
-0.0707106781186548
 46
0.0707106781186548
 79
     0
 98
        1
 10
0.0
 20
0.0
  0
HATCH
  5
266
330
71
100
AcDbEntity
  8
1
  6
Continuous
 62
     2
100
AcDbHatch
 10
0.0
 20
0.0
 30
0.0
210
0.0
220
0.0
230
1.0
  2
_USER
 70
     0
 71
     1
 91
        1
 92
        1
 93
       14
 72
     2
 10
146.6464254694273
 20
745.1469427484252
 40
1.205656168390957
 50
164.9381082228794
 51
195.0618917770945
 73
     1
 72
     2
 10
147.0655533128901
 20
745.25973311046
 40
1.639695123939422
 50
195.0618917770903
 51
275.1581447696393
 73
     1
 72
     2
 10
146.7766972181542
 20
748.4596236936816
 40
4.852596863498166
 50
275.1581447696249
 51
285.979991258353
 73
     1
 72
     1
 10
148.112625135272
 20
743.7945413878808
 11
148.112625135272
 21
744.667058394684
 72
     2
 10
146.9345700932471
 20
746.5574091138338
 40
2.227384008972719
 50
58.06909105003973
 51
71.55192388186632
 73
     0
 72
     2
 10
147.3527378269079
 20
745.3038633377967
 40
0.9059297849848783
 50
71.55192388184098
 51
113.372277888132
 73
     0
 72
     2
 10
147.1962977942059
 20
744.9418713190867
 40
0.5115800601948034
 50
113.3722778881781
 51
151.4785267423044
 73
     0
 72
     2
 10
147.5736550522862
 20
745.1469427484252
 40
0.9410597353332545
 50
151.4785267422912
 51
208.5214732577331
 73
     0
 72
     2
 10
147.1962977942059
 20
745.3520141777642
 40
0.511580060194863
 50
208.5214732576956
 51
246.6277221117967
 73
     0
 72
     2
 10
147.3527378269079
 20
744.9900221590535
 40
0.9059297849853768
 50
246.6277221118708
 51
288.4480761181454
 73
     0
 72
     2
 10
146.9345700932471
 20
743.736476383017
 40
2.227384008973468
 50
288.4480761181337
 51
301.9309089499603
 73
     0
 72
     1
 10
148.112625135272
 20
745.6268271021669
 11
148.112625135272
 21
746.4993441089701
 72
     2
 10
146.7766972181542
 20
741.8342618031693
 40
4.85259686349804
 50
74.02000874164729
 51
84.84185523037509
 73
     1
 72
     2
 10
147.0655533128901
 20
745.0341523863902
 40
1.639695123940563
 50
84.84185523036254
 51
164.9381082228867
 73
     1
 97
       14
330
23A
330
153
330
209
330
239
330
20A
330
20B
330
238
330
237
330
236
330
154
330
20C
330
20D
330
20E
330
20F
 75
     1
 76
     0
 52
45.0
 41
0.1
 77
     0
 78
     1
 53
45.0
 43
0.0
 44
0.0
 45
-0.0707106781186548
 46
0.0707106781186548
 79
     0
 98
        1
 10
0.0
 20
0.0
  0
HATCH
  5
267
330
71
100
AcDbEntity
  8
1
  6
Continuous
 62
     2
100
AcDbHatch
 10
0.0
 20
0.0
 30
0.0
210
0.0
220
0.0
230
1.0
  2
_USER
 70
     0
 71
     1
 91
        1
 92
        1
 93
       18
 72
     2
 10
163.168254792143
 20
745.0341523863902
 40
1.639695123940214
 50
90.0
 51
164.9381082228947
 73
     1
 72
     2
 10
162.7491269486814
 20
745.1469427484252
 40
1.205656168392988
 50
164.9381082229054
 51
195.0618917770946
 73
     1
 72
     2
 10
163.168254792143
 20
745.25973311046
 40
1.639695123940421
 50
195.0618917771015
 51
275.1581447696771
 73
     1
 72
     2
 10
162.8793986974072
 20
748.4596236936816
 40
4.852596863498825
 50
275.1581447696364
 51
285.9799912583383
 73
     1
 72
     1
 10
164.2153266145239
 20
743.7945413878801
 11
164.2153266145239
 21
744.6670583946835
 72
     2
 10
163.0372715725
 20
746.5574091138333
 40
2.227384008972719
 50
58.0690910500605
 51
71.55192388186632
 73
     0
 72
     2
 10
163.4554393061619
 20
745.3038633377967
 40
0.9059297849852278
 50
71.55192388191715
 51
113.3722778881832
 73
     0
 72
     2
 10
163.2989992734588
 20
744.9418713190867
 40
0.5115800601959944
 50
113.3722778881576
 51
151.478526742319
 73
     0
 72
     2
 10
163.6763565315402
 20
745.1469427484252
 40
0.941059735334906
 50
151.4785267423305
 51
208.5214732576391
 73
     0
 72
     2
 10
163.2989992734588
 20
745.3520141777642
 40
0.5115800601944143
 50
208.5214732575803
 51
250.6628567805147
 73
     0
 72
     2
 10
163.4456692715625
 20
744.9340591973813
 40
0.9545230068260935
 50
250.662856780568
 51
270.0
 73
     0
 72
     1
 10
163.4456692715625
 20
745.8885822042074
 11
164.5493085711306
 21
745.8885822042074
 72
     1
 10
164.5493085711306
 20
745.8885822042074
 11
164.5493085711306
 21
743.62003798652
 72
     1
 10
164.5493085711306
 20
743.62003798652
 11
165.7421012732983
 21
743.62003798652
 72
     1
 10
165.7421012732983
 20
743.62003798652
 11
165.7421012732983
 21
745.8885822042074
 72
     1
 10
165.7421012732983
 20
745.8885822042074
 11
166.5532003107717
 21
745.8885822042074
 72
     1
 10
166.5532003107717
 20
745.8885822042074
 11
166.5532003107717
 21
746.6738475103309
 72
     1
 10
166.5532003107717
 20
746.6738475103309
 11
163.168254792143
 21
746.6738475103305
 97
       18
330
1B9
330
1B8
330
1B7
330
1B6
330
1BB
330
155
330
233
330
214
330
232
330
215
330
231
330
230
330
156
330
22F
330
22E
330
216
330
217
330
1BA
 75
     1
 76
     0
 52
45.0
 41
0.1
 77
     0
 78
     1
 53
45.0
 43
0.0
 44
0.0
 45
-0.0707106781186548
 46
0.0707106781186548
 79
     0
 98
        1
 10
0.0
 20
0.0
  0
HATCH
  5
268
330
71
100
AcDbEntity
  8
1
  6
Continuous
 62
     2
100
AcDbHatch
 10
0.0
 20
0.0
 30
0.0
210
0.0
220
0.0
230
1.0
  2
_USER
 70
     0
 71
     1
 91
        1
 92
        1
 93
       18
 72
     2
 10
163.168254792143
 20
745.0341523863902
 40
1.639695123940214
 50
90.0
 51
164.9381082228947
 73
     1
 72
     2
 10
162.7491269486814
 20
745.1469427484252
 40
1.205656168392988
 50
164.9381082229054
 51
195.0618917770946
 73
     1
 72
     2
 10
163.168254792143
 20
745.25973311046
 40
1.639695123940421
 50
195.0618917771015
 51
275.1581447696771
 73
     1
 72
     2
 10
162.8793986974072
 20
748.4596236936816
 40
4.852596863498825
 50
275.1581447696364
 51
285.9799912583383
 73
     1
 72
     1
 10
164.2153266145239
 20
743.7945413878801
 11
164.2153266145239
 21
744.6670583946835
 72
     2
 10
163.0372715725
 20
746.5574091138333
 40
2.227384008972719
 50
58.0690910500605
 51
71.55192388186632
 73
     0
 72
     2
 10
163.4554393061619
 20
745.3038633377967
 40
0.9059297849852278
 50
71.55192388191715
 51
113.3722778881832
 73
     0
 72
     2
 10
163.2989992734588
 20
744.9418713190867
 40
0.5115800601959944
 50
113.3722778881576
 51
151.478526742319
 73
     0
 72
     2
 10
163.6763565315402
 20
745.1469427484252
 40
0.941059735334906
 50
151.4785267423305
 51
208.5214732576391
 73
     0
 72
     2
 10
163.2989992734588
 20
745.3520141777642
 40
0.5115800601944143
 50
208.5214732575803
 51
250.6628567805147
 73
     0
 72
     2
 10
163.4456692715625
 20
744.9340591973813
 40
0.9545230068260935
 50
250.662856780568
 51
270.0
 73
     0
 72
     1
 10
163.4456692715625
 20
745.8885822042074
 11
164.5493085711306
 21
745.8885822042074
 72
     1
 10
164.5493085711306
 20
745.8885822042074
 11
164.5493085711306
 21
743.62003798652
 72
     1
 10
164.5493085711306
 20
743.62003798652
 11
165.7421012732983
 21
743.62003798652
 72
     1
 10
165.7421012732983
 20
743.62003798652
 11
165.7421012732983
 21
745.8885822042074
 72
     1
 10
165.7421012732983
 20
745.8885822042074
 11
166.5532003107717
 21
745.8885822042074
 72
     1
 10
166.5532003107717
 20
745.8885822042074
 11
166.5532003107717
 21
746.6738475103309
 72
     1
 10
166.5532003107717
 20
746.6738475103309
 11
163.168254792143
 21
746.6738475103305
 97
       18
330
1B9
330
1B8
330
1B7
330
1B6
330
1BB
330
155
330
233
330
214
330
232
330
215
330
231
330
230
330
156
330
22F
330
22E
330
216
330
217
330
1BA
 75
     1
 76
     0
 52
45.0
 41
0.1
 77
     0
 78
     1
 53
45.0
 43
0.0
 44
0.0
 45
-0.0707106781186548
 46
0.0707106781186548
 79
     0
 98
        1
 10
0.0
 20
0.0
  0
HATCH
  5
269
330
71
100
AcDbEntity
  8
1
  6
Continuous
 62
     2
100
AcDbHatch
 10
0.0
 20
0.0
 30
0.0
210
0.0
220
0.0
230
1.0
  2
_USER
 70
     0
 71
     1
 91
        4
 92
        1
 93
        8
 72
     2
 10
139.06609569545
 20
749.6087933711034
 40
0.4242446153838273
 50
90.0
 51
180.0
 73
     1
 72
     1
 10
138.6418510800672
 20
749.6087933711034
 11
138.6418510800672
 21
744.0442826019032
 72
     2
 10
139.06609569545
 20
744.0442826019032
 40
0.4242446153828041
 50
180.0
 51
270.0
 73
     1
 72
     1
 10
139.06609569545
 20
743.62003798652
 11
144.5394077861668
 21
743.62003798652
 72
     2
 10
144.5394077861668
 20
744.0442826019032
 40
0.4242446153832589
 50
270.0
 51
360.0
 73
     1
 72
     1
 10
144.9636524015507
 20
744.0442826019032
 11
144.9636524015507
 21
749.6087933711034
 72
     2
 10
144.5394077861668
 20
749.6087933711034
 40
0.4242446153838841
 50
0.0
 51
90.0
 73
     1
 72
     1
 10
144.5394077861668
 20
750.0330379864872
 11
139.06609569545
 21
750.0330379864872
 97
        8
330
227
330
184
330
226
330
185
330
21D
330
182
330
228
330
183
 92
       16
 93
        1
 72
     2
 10
141.6856813459675
 20
747.2899111427479
 40
0.470978932778479
 50
0.0
 51
360.0
 73
     1
 97
        1
330
23B
 92
       16
 93
        8
 72
     2
 10
141.7094963606403
 20
747.2899111427479
 40
0.9118481501444455
 50
295.3740086781789
 51
424.6259913218059
 73
     1
 72
     2
 10
142.2355390587282
 20
748.3990527427156
 40
0.315716923076792
 50
115.3740086783563
 51
180.0
 73
     0
 72
     1
 10
141.9198221356514
 20
748.3990527427156
 11
141.9198221356514
 21
749.0045880312225
 72
     2
 10
142.2355390587282
 20
749.0045880312225
 40
0.3157169230760142
 50
180.0
 51
269.8110329574541
 73
     0
 72
     2
 10
142.2411551940382
 20
747.3017530836534
 40
2.018561131933266
 50
269.8110329575858
 51
450.1889670424142
 73
     0
 72
     2
 10
142.2355390587282
 20
745.5989181360844
 40
0.315716923076792
 50
90.1889670425458
 51
180.0
 73
     0
 72
     1
 10
141.9198221356514
 20
745.5989181360844
 11
141.9198221356514
 21
746.1807695427794
 72
     2
 10
142.2355390587282
 20
746.1807695427794
 40
0.3157169230765842
 50
180.0
 51
244.6259913216525
 73
     0
 97
        8
330
235
330
211
330
1BD
330
234
330
212
330
213
330
1BC
330
210
 92
       16
 93
       12
 72
     1
 10
139.6599903721965
 20
744.3325935420768
 11
141.1358236332061
 21
744.3325935420768
 72
     2
 10
141.1358236332061
 20
744.6483104651535
 40
0.3157169230767067
 50
270.0
 51
360.0
 73
     1
 72
     1
 10
141.4515405562827
 20
744.6483104651535
 11
141.4515405562827
 21
746.1790813966851
 72
     2
 10
141.1358236332061
 20
746.1790813966851
 40
0.3157169230766215
 50
0.0
 51
64.80558935146
 73
     1
 72
     2
 10
141.6584080807811
 20
747.2899111427479
 40
0.9118975235575889
 50
115.1944106485138
 51
244.805589351471
 73
     0
 72
     2
 10
141.1358236332061
 20
748.4007408888101
 40
0.3157169230761838
 50
295.19441064854
 51
360.0
 73
     1
 72
     1
 10
141.4515405562827
 20
748.4007408888101
 11
141.4515405562827
 21
749.0047655078706
 72
     2
 10
141.1358236332061
 20
749.0047655078706
 40
0.3157169230766215
 50
0.0
 51
90.0
 73
     1
 72
     1
 10
141.1358236332061
 20
749.3204824309468
 11
139.6599903721965
 21
749.3204824309468
 72
     2
 10
139.6599903721965
 20
749.0047655078706
 40
0.3157169230761383
 50
90.0
 51
180.0
 73
     1
 72
     1
 10
139.3442734491208
 20
749.0047655078706
 11
139.3442734491208
 21
744.6483104651535
 72
     2
 10
139.6599903721965
 20
744.6483104651535
 40
0.3157169230756836
 50
180.0
 51
270.0
 73
     1
 97
       12
330
189
330
21A
330
188
330
22B
330
187
330
22A
330
21B
330
21C
330
186
330
229
330
181
330
22C
 75
     1
 76
     0
 52
45.0
 41
0.1
 77
     0
 78
     1
 53
45.0
 43
0.0
 44
0.0
 45
-0.0707106781186548
 46
0.0707106781186548
 79
     0
 98
        1
 10
0.0
 20
0.0
  0
HATCH
  5
26A
330
71
100
AcDbEntity
  8
1
  6
Continuous
 62
     2
100
AcDbHatch
 10
0.0
 20
0.0
 30
0.0
210
0.0
220
0.0
230
1.0
  2
_USER
 70
     0
 71
     1
 91
        4
 92
        1
 93
        8
 72
     2
 10
139.06609569545
 20
749.6087933711034
 40
0.4242446153838273
 50
90.0
 51
180.0
 73
     1
 72
     1
 10
138.6418510800672
 20
749.6087933711034
 11
138.6418510800672
 21
744.0442826019032
 72
     2
 10
139.06609569545
 20
744.0442826019032
 40
0.4242446153828041
 50
180.0
 51
270.0
 73
     1
 72
     1
 10
139.06609569545
 20
743.62003798652
 11
144.5394077861668
 21
743.62003798652
 72
     2
 10
144.5394077861668
 20
744.0442826019032
 40
0.4242446153832589
 50
270.0
 51
360.0
 73
     1
 72
     1
 10
144.9636524015507
 20
744.0442826019032
 11
144.9636524015507
 21
749.6087933711034
 72
     2
 10
144.5394077861668
 20
749.6087933711034
 40
0.4242446153838841
 50
0.0
 51
90.0
 73
     1
 72
     1
 10
144.5394077861668
 20
750.0330379864872
 11
139.06609569545
 21
750.0330379864872
 97
        8
330
227
330
184
330
226
330
185
330
21D
330
182
330
228
330
183
 92
       16
 93
        1
 72
     2
 10
141.6856813459675
 20
747.2899111427479
 40
0.470978932778479
 50
0.0
 51
360.0
 73
     1
 97
        1
330
23B
 92
       16
 93
        8
 72
     2
 10
141.7094963606403
 20
747.2899111427479
 40
0.9118481501444455
 50
295.3740086781789
 51
424.6259913218059
 73
     1
 72
     2
 10
142.2355390587282
 20
748.3990527427156
 40
0.315716923076792
 50
115.3740086783563
 51
180.0
 73
     0
 72
     1
 10
141.9198221356514
 20
748.3990527427156
 11
141.9198221356514
 21
749.0045880312225
 72
     2
 10
142.2355390587282
 20
749.0045880312225
 40
0.3157169230760142
 50
180.0
 51
269.8110329574541
 73
     0
 72
     2
 10
142.2411551940382
 20
747.3017530836534
 40
2.018561131933266
 50
269.8110329575858
 51
450.1889670424142
 73
     0
 72
     2
 10
142.2355390587282
 20
745.5989181360844
 40
0.315716923076792
 50
90.1889670425458
 51
180.0
 73
     0
 72
     1
 10
141.9198221356514
 20
745.5989181360844
 11
141.9198221356514
 21
746.1807695427794
 72
     2
 10
142.2355390587282
 20
746.1807695427794
 40
0.3157169230765842
 50
180.0
 51
244.6259913216525
 73
     0
 97
        8
330
235
330
211
330
1BD
330
234
330
212
330
213
330
1BC
330
210
 92
       16
 93
       12
 72
     1
 10
139.6599903721965
 20
744.3325935420768
 11
141.1358236332061
 21
744.3325935420768
 72
     2
 10
141.1358236332061
 20
744.6483104651535
 40
0.3157169230767067
 50
270.0
 51
360.0
 73
     1
 72
     1
 10
141.4515405562827
 20
744.6483104651535
 11
141.4515405562827
 21
746.1790813966851
 72
     2
 10
141.1358236332061
 20
746.1790813966851
 40
0.3157169230766215
 50
0.0
 51
64.80558935146
 73
     1
 72
     2
 10
141.6584080807811
 20
747.2899111427479
 40
0.9118975235575889
 50
115.1944106485138
 51
244.805589351471
 73
     0
 72
     2
 10
141.1358236332061
 20
748.4007408888101
 40
0.3157169230761838
 50
295.19441064854
 51
360.0
 73
     1
 72
     1
 10
141.4515405562827
 20
748.4007408888101
 11
141.4515405562827
 21
749.0047655078706
 72
     2
 10
141.1358236332061
 20
749.0047655078706
 40
0.3157169230766215
 50
0.0
 51
90.0
 73
     1
 72
     1
 10
141.1358236332061
 20
749.3204824309468
 11
139.6599903721965
 21
749.3204824309468
 72
     2
 10
139.6599903721965
 20
749.0047655078706
 40
0.3157169230761383
 50
90.0
 51
180.0
 73
     1
 72
     1
 10
139.3442734491208
 20
749.0047655078706
 11
139.3442734491208
 21
744.6483104651535
 72
     2
 10
139.6599903721965
 20
744.6483104651535
 40
0.3157169230756836
 50
180.0
 51
270.0
 73
     1
 97
       12
330
189
330
21A
330
188
330
22B
330
187
330
22A
330
21B
330
21C
330
186
330
229
330
181
330
22C
 75
     1
 76
     0
 52
45.0
 41
0.1
 77
     0
 78
     1
 53
45.0
 43
0.0
 44
0.0
 45
-0.0707106781186548
 46
0.0707106781186548
 79
     0
 98
        1
 10
0.0
 20
0.0
  0
HATCH
  5
26B
330
71
100
AcDbEntity
  8
1
  6
Continuous
 62
     2
100
AcDbHatch
 10
0.0
 20
0.0
 30
0.0
210
0.0
220
0.0
230
1.0
  2
_USER
 70
     0
 71
     1
 91
        2
 92
        1
 93
       12
 72
     2
 10
153.7412596994393
 20
748.5061332245995
 40
1.526904761905939
 50
90.0
 51
270.0
 73
     1
 72
     1
 10
153.7412596994393
 20
746.9792284626942
 11
156.8915794232203
 21
746.9792284626942
 72
     1
 10
156.8915794232203
 20
746.9792284626942
 11
156.8915794232203
 21
747.6772420681367
 72
     1
 10
156.8915794232203
 20
747.6772420681367
 11
155.5556515967926
 21
747.6772420681367
 72
     1
 10
155.5556515967926
 20
747.6772420681367
 11
155.5556515967926
 21
748.1571264218784
 72
     1
 10
155.5556515967926
 20
748.1571264218784
 11
156.8915794232203
 21
748.1571264218784
 72
     1
 10
156.8915794232203
 20
748.1571264218784
 11
156.8915794232203
 21
748.8551400273207
 72
     1
 10
156.8915794232203
 20
748.8551400273207
 11
155.5556515967926
 21
748.8551400273207
 72
     1
 10
155.5556515967926
 20
748.8551400273207
 11
155.5556515967926
 21
749.3350243810623
 72
     1
 10
155.5556515967926
 20
749.3350243810623
 11
156.8915794232203
 21
749.3350243810623
 72
     1
 10
156.8915794232203
 20
749.3350243810623
 11
156.8915794232203
 21
750.0330379865054
 72
     1
 10
156.8915794232203
 20
750.0330379865054
 11
153.7412596994393
 21
750.0330379865054
 97
       12
330
178
330
172
330
199
330
198
330
197
330
196
330
173
330
174
330
175
330
176
330
218
330
177
 92
       16
 93
        4
 72
     2
 10
154.1572717459508
 20
748.5061332245995
 40
0.7717997786797075
 50
141.8795802028371
 51
218.1204197971562
 73
     1
 72
     2
 10
153.9575317096045
 20
748.3494020464791
 40
0.5179085730134722
 50
218.120419797156
 51
321.8795802028517
 73
     1
 72
     2
 10
153.7577916732583
 20
748.5061332245995
 40
0.7717997786796373
 50
321.8795802028437
 51
398.1204197971629
 73
     1
 72
     2
 10
153.9575317096045
 20
748.66286440272
 40
0.5179085730135616
 50
38.12041979714829
 51
141.879580202844
 73
     1
 97
        4
330
225
330
224
330
21F
330
21E
 75
     1
 76
     0
 52
45.0
 41
0.1
 77
     0
 78
     1
 53
45.0
 43
0.0
 44
0.0
 45
-0.0707106781186548
 46
0.0707106781186548
 79
     0
 98
        1
 10
0.0
 20
0.0
  0
HATCH
  5
26C
330
71
100
AcDbEntity
  8
1
  6
Continuous
 62
     2
100
AcDbHatch
 10
0.0
 20
0.0
 30
0.0
210
0.0
220
0.0
230
1.0
  2
_USER
 70
     0
 71
     1
 91
        2
 92
        1
 93
       12
 72
     2
 10
153.7412596994393
 20
748.5061332245995
 40
1.526904761905939
 50
90.0
 51
270.0
 73
     1
 72
     1
 10
153.7412596994393
 20
746.9792284626942
 11
156.8915794232203
 21
746.9792284626942
 72
     1
 10
156.8915794232203
 20
746.9792284626942
 11
156.8915794232203
 21
747.6772420681367
 72
     1
 10
156.8915794232203
 20
747.6772420681367
 11
155.5556515967926
 21
747.6772420681367
 72
     1
 10
155.5556515967926
 20
747.6772420681367
 11
155.5556515967926
 21
748.1571264218784
 72
     1
 10
155.5556515967926
 20
748.1571264218784
 11
156.8915794232203
 21
748.1571264218784
 72
     1
 10
156.8915794232203
 20
748.1571264218784
 11
156.8915794232203
 21
748.8551400273207
 72
     1
 10
156.8915794232203
 20
748.8551400273207
 11
155.5556515967926
 21
748.8551400273207
 72
     1
 10
155.5556515967926
 20
748.8551400273207
 11
155.5556515967926
 21
749.3350243810623
 72
     1
 10
155.5556515967926
 20
749.3350243810623
 11
156.8915794232203
 21
749.3350243810623
 72
     1
 10
156.8915794232203
 20
749.3350243810623
 11
156.8915794232203
 21
750.0330379865054
 72
     1
 10
156.8915794232203
 20
750.0330379865054
 11
153.7412596994393
 21
750.0330379865054
 97
       12
330
178
330
172
330
199
330
198
330
197
330
196
330
173
330
174
330
175
330
176
330
218
330
177
 92
       16
 93
        4
 72
     2
 10
154.1572717459508
 20
748.5061332245995
 40
0.7717997786797075
 50
141.8795802028371
 51
218.1204197971562
 73
     1
 72
     2
 10
153.9575317096045
 20
748.3494020464791
 40
0.5179085730134722
 50
218.120419797156
 51
321.8795802028517
 73
     1
 72
     2
 10
153.7577916732583
 20
748.5061332245995
 40
0.7717997786796373
 50
321.8795802028437
 51
398.1204197971629
 73
     1
 72
     2
 10
153.9575317096045
 20
748.66286440272
 40
0.5179085730135616
 50
38.12041979714829
 51
141.879580202844
 73
     1
 97
        4
330
225
330
224
330
21F
330
21E
 75
     1
 76
     0
 52
45.0
 41
0.1
 77
     0
 78
     1
 53
45.0
 43
0.0
 44
0.0
 45
-0.0707106781186548
 46
0.0707106781186548
 79
     0
 98
        1
 10
0.0
 20
0.0
  0
HATCH
  5
26D
330
71
100
AcDbEntity
  8
1
  6
Continuous
 62
     2
100
AcDbHatch
 10
0.0
 20
0.0
 30
0.0
210
0.0
220
0.0
230
1.0
  2
_USER
 70
     0
 71
     1
 91
        2
 92
        1
 93
        4
 72
     2
 10
149.7156443369777
 20
745.1469427484252
 40
1.458034083651478
 50
117.5481481756639
 51
242.451851824336
 73
     1
 72
     2
 10
149.996584228811
 20
745.6855177587285
 40
2.065479772208446
 50
242.4518518243384
 51
297.5481481756882
 73
     1
 72
     2
 10
150.2775241206443
 20
745.1469427484252
 40
1.458034083651977
 50
297.5481481757016
 51
422.4518518242985
 73
     1
 72
     2
 10
149.996584228811
 20
744.6083677381224
 40
2.065479772208543
 50
62.451851824306
 51
117.5481481756674
 73
     1
 97
        4
330
223
330
220
330
222
330
221
 92
       16
 93
        4
 72
     2
 10
149.996584228811
 20
745.3036739265457
 40
0.5179085730133349
 50
38.12041979715197
 51
141.8795802028538
 73
     1
 72
     2
 10
150.1963242651571
 20
745.1469427484252
 40
0.7717997786794808
 50
141.8795802028346
 51
218.120419797172
 73
     1
 72
     2
 10
149.996584228811
 20
744.9902115703052
 40
0.5179085730137529
 50
218.1204197971956
 51
321.8795802027985
 73
     1
 72
     2
 10
149.7968441924646
 20
745.1469427484252
 40
0.7717997786797298
 50
321.8795802028384
 51
398.120419797155
 73
     1
 97
        4
330
206
330
207
330
208
330
205
 75
     1
 76
     0
 52
45.0
 41
0.1
 77
     0
 78
     1
 53
45.0
 43
0.0
 44
0.0
 45
-0.0707106781186548
 46
0.0707106781186548
 79
     0
 98
        1
 10
0.0
 20
0.0
  0
HATCH
  5
26E
330
71
100
AcDbEntity
  8
1
  6
Continuous
 62
     2
100
AcDbHatch
 10
0.0
 20
0.0
 30
0.0
210
0.0
220
0.0
230
1.0
  2
_USER
 70
     0
 71
     1
 91
        2
 92
        1
 93
        4
 72
     2
 10
149.7156443369777
 20
745.1469427484252
 40
1.458034083651478
 50
117.5481481756639
 51
242.451851824336
 73
     1
 72
     2
 10
149.996584228811
 20
745.6855177587285
 40
2.065479772208446
 50
242.4518518243384
 51
297.5481481756882
 73
     1
 72
     2
 10
150.2775241206443
 20
745.1469427484252
 40
1.458034083651977
 50
297.5481481757016
 51
422.4518518242985
 73
     1
 72
     2
 10
149.996584228811
 20
744.6083677381224
 40
2.065479772208543
 50
62.451851824306
 51
117.5481481756674
 73
     1
 97
        4
330
223
330
220
330
222
330
221
 92
       16
 93
        4
 72
     2
 10
149.996584228811
 20
745.3036739265457
 40
0.5179085730133349
 50
38.12041979715197
 51
141.8795802028538
 73
     1
 72
     2
 10
150.1963242651571
 20
745.1469427484252
 40
0.7717997786794808
 50
141.8795802028346
 51
218.120419797172
 73
     1
 72
     2
 10
149.996584228811
 20
744.9902115703052
 40
0.5179085730137529
 50
218.1204197971956
 51
321.8795802027985
 73
     1
 72
     2
 10
149.7968441924646
 20
745.1469427484252
 40
0.7717997786797298
 50
321.8795802028384
 51
398.120419797155
 73
     1
 97
        4
330
206
330
207
330
208
330
205
 75
     1
 76
     0
 52
45.0
 41
0.1
 77
     0
 78
     1
 53
45.0
 43
0.0
 44
0.0
 45
-0.0707106781186548
 46
0.0707106781186548
 79
     0
 98
        1
 10
0.0
 20
0.0
  0
HATCH
  5
26F
330
71
100
AcDbEntity
  8
1
  6
Continuous
 62
     2
100
AcDbHatch
 10
0.0
 20
0.0
 30
0.0
210
0.0
220
0.0
230
1.0
  2
_USER
 70
     0
 71
     1
 91
        2
 92
        1
 93
        6
 72
     1
 10
145.4407694824175
 20
750.0330379865054
 11
145.4407694824175
 21
746.9792284626942
 72
     1
 10
145.4407694824175
 20
746.9792284626942
 11
146.6812738926716
 21
746.9792284626942
 72
     1
 10
146.6812738926716
 20
746.9792284626942
 11
146.6812738926716
 21
747.922306703838
 72
     1
 10
146.6812738926716
 20
747.922306703838
 11
147.4400414804519
 21
747.922306703838
 72
     2
 10
147.4400414804519
 20
748.9776723451716
 40
1.055365641333651
 50
270.0
 51
450.0
 73
     1
 72
     1
 10
147.4400414804519
 20
750.0330379865054
 11
145.4407694824175
 21
750.0330379865054
 97
        6
330
22D
330
18A
330
180
330
17F
330
18C
330
18B
 92
       16
 93
        4
 72
     1
 10
146.9985689542135
 20
749.3699321410653
 11
146.6812738926716
 21
749.3699321410653
 72
     1
 10
146.6812738926716
 20
749.3699321410653
 11
146.6812738926716
 21
748.664204491723
 72
     1
 10
146.6812738926716
 20
748.664204491723
 11
146.9985689542135
 21
748.664204491723
 72
     2
 10
146.9985689542135
 20
749.0170683163942
 40
0.3528638246712035
 50
270.0
 51
450.0
 73
     1
 97
        4
330
18D
330
17E
330
18E
330
219
 75
     1
 76
     0
 52
45.0
 41
0.1
 77
     0
 78
     1
 53
45.0
 43
0.0
 44
0.0
 45
-0.0707106781186548
 46
0.0707106781186548
 79
     0
 98
        1
 10
0.0
 20
0.0
  0
HATCH
  5
270
330
71
100
AcDbEntity
  8
1
  6
Continuous
 62
     2
100
AcDbHatch
 10
0.0
 20
0.0
 30
0.0
210
0.0
220
0.0
230
1.0
  2
_USER
 70
     0
 71
     1
 91
        2
 92
        1
 93
        6
 72
     1
 10
145.4407694824175
 20
750.0330379865054
 11
145.4407694824175
 21
746.9792284626942
 72
     1
 10
145.4407694824175
 20
746.9792284626942
 11
146.6812738926716
 21
746.9792284626942
 72
     1
 10
146.6812738926716
 20
746.9792284626942
 11
146.6812738926716
 21
747.922306703838
 72
     1
 10
146.6812738926716
 20
747.922306703838
 11
147.4400414804519
 21
747.922306703838
 72
     2
 10
147.4400414804519
 20
748.9776723451716
 40
1.055365641333651
 50
270.0
 51
450.0
 73
     1
 72
     1
 10
147.4400414804519
 20
750.0330379865054
 11
145.4407694824175
 21
750.0330379865054
 97
        6
330
22D
330
18A
330
180
330
17F
330
18C
330
18B
 92
       16
 93
        4
 72
     1
 10
146.9985689542135
 20
749.3699321410653
 11
146.6812738926716
 21
749.3699321410653
 72
     1
 10
146.6812738926716
 20
749.3699321410653
 11
146.6812738926716
 21
748.664204491723
 72
     1
 10
146.6812738926716
 20
748.664204491723
 11
146.9985689542135
 21
748.664204491723
 72
     2
 10
146.9985689542135
 20
749.0170683163942
 40
0.3528638246712035
 50
270.0
 51
450.0
 73
     1
 97
        4
330
18D
330
17E
330
18E
330
219
 75
     1
 76
     0
 52
45.0
 41
0.1
 77
     0
 78
     1
 53
45.0
 43
0.0
 44
0.0
 45
-0.0707106781186548
 46
0.0707106781186548
 79
     0
 98
        1
 10
0.0
 20
0.0
  0
HATCH
  5
271
330
71
100
AcDbEntity
  8
1
  6
Continuous
 62
     2
100
AcDbHatch
 10
0.0
 20
0.0
 30
0.0
210
0.0
220
0.0
230
1.0
  2
_USER
 70
     0
 71
     1
 91
        1
 92
        1
 93
       12
 72
     1
 10
165.0550526768507
 20
750.0330379865054
 11
166.4577768945979
 21
750.0330379865054
 72
     1
 10
166.4577768945979
 20
750.0330379865054
 11
165.1552472638314
 21
748.5600874564692
 72
     1
 10
165.1552472638314
 20
748.5600874564692
 11
166.5532003107717
 21
746.9792284626942
 72
     1
 10
166.5532003107717
 20
746.9792284626942
 11
165.1504760930234
 21
746.9792284626942
 72
     1
 10
165.1504760930234
 20
746.9792284626942
 11
164.4538851549579
 21
747.7669602479879
 72
     1
 10
164.4538851549579
 20
747.7669602479879
 11
163.7572942168922
 21
746.9792284626942
 72
     1
 10
163.7572942168922
 20
746.9792284626942
 11
162.354569999144
 21
746.9792284626942
 72
     1
 10
162.354569999144
 20
746.9792284626942
 11
163.7525230460843
 21
748.5600874564692
 72
     1
 10
163.7525230460843
 20
748.5600874564692
 11
162.4499934153168
 21
750.0330379865054
 72
     1
 10
162.4499934153168
 20
750.0330379865054
 11
163.8527176330661
 21
750.0330379865054
 72
     1
 10
163.8527176330661
 20
750.0330379865054
 11
164.4538851549579
 21
749.3532146649499
 72
     1
 10
164.4538851549579
 20
749.3532146649499
 11
165.0550526768507
 21
750.0330379865054
 97
       12
330
159
330
1B2
330
1B1
330
1B0
330
1AF
330
15A
330
15B
330
157
330
158
330
1B5
330
1B4
330
1B3
 75
     1
 76
     0
 52
45.0
 41
0.1
 77
     0
 78
     1
 53
45.0
 43
0.0
 44
0.0
 45
-0.0707106781186548
 46
0.0707106781186548
 79
     0
 98
        1
 10
0.0
 20
0.0
  0
HATCH
  5
272
330
71
100
AcDbEntity
  8
1
  6
Continuous
 62
     2
100
AcDbHatch
 10
0.0
 20
0.0
 30
0.0
210
0.0
220
0.0
230
1.0
  2
_USER
 70
     0
 71
     1
 91
        1
 92
        1
 93
       12
 72
     1
 10
165.0550526768507
 20
750.0330379865054
 11
166.4577768945979
 21
750.0330379865054
 72
     1
 10
166.4577768945979
 20
750.0330379865054
 11
165.1552472638314
 21
748.5600874564692
 72
     1
 10
165.1552472638314
 20
748.5600874564692
 11
166.5532003107717
 21
746.9792284626942
 72
     1
 10
166.5532003107717
 20
746.9792284626942
 11
165.1504760930234
 21
746.9792284626942
 72
     1
 10
165.1504760930234
 20
746.9792284626942
 11
164.4538851549579
 21
747.7669602479879
 72
     1
 10
164.4538851549579
 20
747.7669602479879
 11
163.7572942168922
 21
746.9792284626942
 72
     1
 10
163.7572942168922
 20
746.9792284626942
 11
162.354569999144
 21
746.9792284626942
 72
     1
 10
162.354569999144
 20
746.9792284626942
 11
163.7525230460843
 21
748.5600874564692
 72
     1
 10
163.7525230460843
 20
748.5600874564692
 11
162.4499934153168
 21
750.0330379865054
 72
     1
 10
162.4499934153168
 20
750.0330379865054
 11
163.8527176330661
 21
750.0330379865054
 72
     1
 10
163.8527176330661
 20
750.0330379865054
 11
164.4538851549579
 21
749.3532146649499
 72
     1
 10
164.4538851549579
 20
749.3532146649499
 11
165.0550526768507
 21
750.0330379865054
 97
       12
330
159
330
1B2
330
1B1
330
1B0
330
1AF
330
15A
330
15B
330
157
330
158
330
1B5
330
1B4
330
1B3
 75
     1
 76
     0
 52
45.0
 41
0.1
 77
     0
 78
     1
 53
45.0
 43
0.0
 44
0.0
 45
-0.0707106781186548
 46
0.0707106781186548
 79
     0
 98
        1
 10
0.0
 20
0.0
  0
HATCH
  5
273
330
71
100
AcDbEntity
  8
1
  6
Continuous
 62
     2
100
AcDbHatch
 10
0.0
 20
0.0
 30
0.0
210
0.0
220
0.0
230
1.0
  2
_USER
 70
     0
 71
     1
 91
        1
 92
        1
 93
        4
 72
     1
 10
162.2352907289271
 20
750.0330379865054
 11
162.2352907289271
 21
746.9792284626942
 72
     1
 10
162.2352907289271
 20
746.9792284626942
 11
160.9947863186742
 21
746.9792284626942
 72
     1
 10
160.9947863186742
 20
746.9792284626942
 11
160.9947863186742
 21
750.0330379865054
 72
     1
 10
160.9947863186742
 20
750.0330379865054
 11
162.2352907289271
 21
750.0330379865054
 97
        4
330
1AD
330
15C
330
1AC
330
1AE
 75
     1
 76
     0
 52
45.0
 41
0.1
 77
     0
 78
     1
 53
45.0
 43
0.0
 44
0.0
 45
-0.0707106781186548
 46
0.0707106781186548
 79
     0
 98
        1
 10
0.0
 20
0.0
  0
HATCH
  5
274
330
71
100
AcDbEntity
  8
1
  6
Continuous
 62
     2
100
AcDbHatch
 10
0.0
 20
0.0
 30
0.0
210
0.0
220
0.0
230
1.0
  2
_USER
 70
     0
 71
     1
 91
        1
 92
        1
 93
        4
 72
     1
 10
162.2352907289271
 20
750.0330379865054
 11
162.2352907289271
 21
746.9792284626942
 72
     1
 10
162.2352907289271
 20
746.9792284626942
 11
160.9947863186742
 21
746.9792284626942
 72
     1
 10
160.9947863186742
 20
746.9792284626942
 11
160.9947863186742
 21
750.0330379865054
 72
     1
 10
160.9947863186742
 20
750.0330379865054
 11
162.2352907289271
 21
750.0330379865054
 97
        4
330
1AD
330
15C
330
1AC
330
1AE
 75
     1
 76
     0
 52
45.0
 41
0.1
 77
     0
 78
     1
 53
45.0
 43
0.0
 44
0.0
 45
-0.0707106781186548
 46
0.0707106781186548
 79
     0
 98
        1
 10
0.0
 20
0.0
  0
HATCH
  5
275
330
71
100
AcDbEntity
  8
1
  6
Continuous
 62
     2
100
AcDbHatch
 10
0.0
 20
0.0
 30
0.0
210
0.0
220
0.0
230
1.0
  2
_USER
 70
     0
 71
     1
 91
        2
 92
        1
 93
        8
 72
     1
 10
161.8448467253951
 20
743.62003798652
 11
160.6043423151412
 21
743.62003798652
 72
     1
 10
160.6043423151412
 20
743.62003798652
 11
160.3928622616654
 21
744.1609985307377
 72
     1
 10
160.3928622616654
 20
744.1609985307377
 11
159.2604206849916
 21
744.1609985307377
 72
     1
 10
159.2604206849916
 20
744.1609985307377
 11
159.0489406315158
 21
743.62003798652
 72
     1
 10
159.0489406315158
 20
743.62003798652
 11
157.8084362212628
 21
743.62003798652
 72
     1
 10
157.8084362212628
 20
743.62003798652
 11
159.2063892682021
 21
746.6738475103309
 72
     1
 10
159.2063892682021
 20
746.6738475103309
 11
160.4468936784548
 21
746.6738475103309
 72
     1
 10
160.4468936784548
 20
746.6738475103309
 11
161.8448467253951
 21
743.62003798652
 97
        8
330
1A8
330
162
330
1A7
330
1AA
330
15F
330
1A9
330
160
330
161
 92
       16
 93
        3
 72
     1
 10
159.5264762361366
 20
744.8415617960444
 11
160.1268067105191
 21
744.8415617960444
 72
     1
 10
160.1268067105191
 20
744.8415617960444
 11
159.826641473329
 21
745.609376762031
 72
     1
 10
159.826641473329
 20
745.609376762031
 11
159.5264762361366
 21
744.8415617960444
 97
        3
330
15E
330
15D
330
1AB
 75
     1
 76
     0
 52
45.0
 41
0.1
 77
     0
 78
     1
 53
45.0
 43
0.0
 44
0.0
 45
-0.0707106781186548
 46
0.0707106781186548
 79
     0
 98
        1
 10
0.0
 20
0.0
  0
HATCH
  5
276
330
71
100
AcDbEntity
  8
1
  6
Continuous
 62
     2
100
AcDbHatch
 10
0.0
 20
0.0
 30
0.0
210
0.0
220
0.0
230
1.0
  2
_USER
 70
     0
 71
     1
 91
        2
 92
        1
 93
        8
 72
     1
 10
161.8448467253951
 20
743.62003798652
 11
160.6043423151412
 21
743.62003798652
 72
     1
 10
160.6043423151412
 20
743.62003798652
 11
160.3928622616654
 21
744.1609985307377
 72
     1
 10
160.3928622616654
 20
744.1609985307377
 11
159.2604206849916
 21
744.1609985307377
 72
     1
 10
159.2604206849916
 20
744.1609985307377
 11
159.0489406315158
 21
743.62003798652
 72
     1
 10
159.0489406315158
 20
743.62003798652
 11
157.8084362212628
 21
743.62003798652
 72
     1
 10
157.8084362212628
 20
743.62003798652
 11
159.2063892682021
 21
746.6738475103309
 72
     1
 10
159.2063892682021
 20
746.6738475103309
 11
160.4468936784548
 21
746.6738475103309
 72
     1
 10
160.4468936784548
 20
746.6738475103309
 11
161.8448467253951
 21
743.62003798652
 97
        8
330
1A8
330
162
330
1A7
330
1AA
330
15F
330
1A9
330
160
330
161
 92
       16
 93
        3
 72
     1
 10
159.5264762361366
 20
744.8415617960444
 11
160.1268067105191
 21
744.8415617960444
 72
     1
 10
160.1268067105191
 20
744.8415617960444
 11
159.826641473329
 21
745.609376762031
 72
     1
 10
159.826641473329
 20
745.609376762031
 11
159.5264762361366
 21
744.8415617960444
 97
        3
330
15E
330
15D
330
1AB
 75
     1
 76
     0
 52
45.0
 41
0.1
 77
     0
 78
     1
 53
45.0
 43
0.0
 44
0.0
 45
-0.0707106781186548
 46
0.0707106781186548
 79
     0
 98
        1
 10
0.0
 20
0.0
  0
HATCH
  5
277
330
71
100
AcDbEntity
  8
1
  6
Continuous
 62
     2
100
AcDbHatch
 10
0.0
 20
0.0
 30
0.0
210
0.0
220
0.0
230
1.0
  2
_USER
 70
     0
 71
     1
 91
        1
 92
        1
 93
        8
 72
     1
 10
155.6509240820806
 20
746.6738475103309
 11
155.6509240820806
 21
745.8885822042074
 72
     1
 10
155.6509240820806
 20
745.8885822042074
 11
156.4620231195552
 21
745.8885822042074
 72
     1
 10
156.4620231195552
 20
745.8885822042074
 11
156.4620231195552
 21
743.62003798652
 72
     1
 10
156.4620231195552
 20
743.62003798652
 11
157.6548158217217
 21
743.62003798652
 72
     1
 10
157.6548158217217
 20
743.62003798652
 11
157.6548158217217
 21
745.8885822042074
 72
     1
 10
157.6548158217217
 20
745.8885822042074
 11
158.4659148591942
 21
745.8885822042074
 72
     1
 10
158.4659148591942
 20
745.8885822042074
 11
158.4659148591942
 21
746.6738475103309
 72
     1
 10
158.4659148591942
 20
746.6738475103309
 11
155.6509240820806
 21
746.6738475103309
 97
        8
330
1A4
330
1A3
330
1A2
330
163
330
164
330
1A6
330
165
330
1A5
 75
     1
 76
     0
 52
45.0
 41
0.1
 77
     0
 78
     1
 53
45.0
 43
0.0
 44
0.0
 45
-0.0707106781186548
 46
0.0707106781186548
 79
     0
 98
        1
 10
0.0
 20
0.0
  0
HATCH
  5
278
330
71
100
AcDbEntity
  8
1
  6
Continuous
 62
     2
100
AcDbHatch
 10
0.0
 20
0.0
 30
0.0
210
0.0
220
0.0
230
1.0
  2
_USER
 70
     0
 71
     1
 91
        1
 92
        1
 93
        8
 72
     1
 10
155.6509240820806
 20
746.6738475103309
 11
155.6509240820806
 21
745.8885822042074
 72
     1
 10
155.6509240820806
 20
745.8885822042074
 11
156.4620231195552
 21
745.8885822042074
 72
     1
 10
156.4620231195552
 20
745.8885822042074
 11
156.4620231195552
 21
743.62003798652
 72
     1
 10
156.4620231195552
 20
743.62003798652
 11
157.6548158217217
 21
743.62003798652
 72
     1
 10
157.6548158217217
 20
743.62003798652
 11
157.6548158217217
 21
745.8885822042074
 72
     1
 10
157.6548158217217
 20
745.8885822042074
 11
158.4659148591942
 21
745.8885822042074
 72
     1
 10
158.4659148591942
 20
745.8885822042074
 11
158.4659148591942
 21
746.6738475103309
 72
     1
 10
158.4659148591942
 20
746.6738475103309
 11
155.6509240820806
 21
746.6738475103309
 97
        8
330
1A4
330
1A3
330
1A2
330
163
330
164
330
1A6
330
165
330
1A5
 75
     1
 76
     0
 52
45.0
 41
0.1
 77
     0
 78
     1
 53
45.0
 43
0.0
 44
0.0
 45
-0.0707106781186548
 46
0.0707106781186548
 79
     0
 98
        1
 10
0.0
 20
0.0
  0
HATCH
  5
279
330
71
100
AcDbEntity
  8
1
  6
Continuous
 62
     2
100
AcDbHatch
 10
0.0
 20
0.0
 30
0.0
210
0.0
220
0.0
230
1.0
  2
_USER
 70
     0
 71
     1
 91
        1
 92
        1
 93
       10
 72
     1
 10
158.3229306658197
 20
750.0330379865054
 11
157.1301379636532
 21
750.0330379865054
 72
     1
 10
157.1301379636532
 20
750.0330379865054
 11
157.1301379636532
 21
746.9792284626942
 72
     1
 10
157.1301379636532
 20
746.9792284626942
 11
158.3229306658197
 21
746.9792284626942
 72
     1
 10
158.3229306658197
 20
746.9792284626942
 11
158.3229306658197
 21
748.2880039728989
 72
     1
 10
158.3229306658197
 20
748.2880039728989
 11
159.5634350760737
 21
746.9792284626942
 72
     1
 10
159.5634350760737
 20
746.9792284626942
 11
160.7562277782403
 21
746.9792284626942
 72
     1
 10
160.7562277782403
 20
746.9792284626942
 11
160.7562277782403
 21
750.0330379865054
 72
     1
 10
160.7562277782403
 20
750.0330379865054
 11
159.5634350760737
 21
750.0330379865054
 72
     1
 10
159.5634350760737
 20
750.0330379865054
 11
159.5634350760737
 21
748.7242624763002
 72
     1
 10
159.5634350760737
 20
748.7242624763002
 11
158.3229306658197
 21
750.0330379865054
 97
       10
330
19E
330
168
330
169
330
16A
330
16B
330
1A1
330
166
330
1A0
330
19F
330
167
 75
     1
 76
     0
 52
45.0
 41
0.1
 77
     0
 78
     1
 53
45.0
 43
0.0
 44
0.0
 45
-0.0707106781186548
 46
0.0707106781186548
 79
     0
 98
        1
 10
0.0
 20
0.0
  0
HATCH
  5
27A
330
71
100
AcDbEntity
  8
1
  6
Continuous
 62
     2
100
AcDbHatch
 10
0.0
 20
0.0
 30
0.0
210
0.0
220
0.0
230
1.0
  2
_USER
 70
     0
 71
     1
 91
        1
 92
        1
 93
       10
 72
     1
 10
158.3229306658197
 20
750.0330379865054
 11
157.1301379636532
 21
750.0330379865054
 72
     1
 10
157.1301379636532
 20
750.0330379865054
 11
157.1301379636532
 21
746.9792284626942
 72
     1
 10
157.1301379636532
 20
746.9792284626942
 11
158.3229306658197
 21
746.9792284626942
 72
     1
 10
158.3229306658197
 20
746.9792284626942
 11
158.3229306658197
 21
748.2880039728989
 72
     1
 10
158.3229306658197
 20
748.2880039728989
 11
159.5634350760737
 21
746.9792284626942
 72
     1
 10
159.5634350760737
 20
746.9792284626942
 11
160.7562277782403
 21
746.9792284626942
 72
     1
 10
160.7562277782403
 20
746.9792284626942
 11
160.7562277782403
 21
750.0330379865054
 72
     1
 10
160.7562277782403
 20
750.0330379865054
 11
159.5634350760737
 21
750.0330379865054
 72
     1
 10
159.5634350760737
 20
750.0330379865054
 11
159.5634350760737
 21
748.7242624763002
 72
     1
 10
159.5634350760737
 20
748.7242624763002
 11
158.3229306658197
 21
750.0330379865054
 97
       10
330
19E
330
168
330
169
330
16A
330
16B
330
1A1
330
166
330
1A0
330
19F
330
167
 75
     1
 76
     0
 52
45.0
 41
0.1
 77
     0
 78
     1
 53
45.0
 43
0.0
 44
0.0
 45
-0.0707106781186548
 46
0.0707106781186548
 79
     0
 98
        1
 10
0.0
 20
0.0
  0
HATCH
  5
27B
330
71
100
AcDbEntity
  8
1
  6
Continuous
 62
     2
100
AcDbHatch
 10
0.0
 20
0.0
 30
0.0
210
0.0
220
0.0
230
1.0
  2
_USER
 70
     0
 71
     1
 91
        1
 92
        1
 93
       10
 72
     1
 10
153.0744918454011
 20
746.6738475103309
 11
151.8816991432335
 21
746.6738475103309
 72
     1
 10
151.8816991432335
 20
746.6738475103309
 11
151.8816991432335
 21
743.62003798652
 72
     1
 10
151.8816991432335
 20
743.62003798652
 11
153.0744918454011
 21
743.62003798652
 72
     1
 10
153.0744918454011
 20
743.62003798652
 11
153.0744918454011
 21
744.9288134967245
 72
     1
 10
153.0744918454011
 20
744.9288134967245
 11
154.314996255654
 21
743.62003798652
 72
     1
 10
154.314996255654
 20
743.62003798652
 11
155.5077889578204
 21
743.62003798652
 72
     1
 10
155.5077889578204
 20
743.62003798652
 11
155.5077889578204
 21
746.6738475103309
 72
     1
 10
155.5077889578204
 20
746.6738475103309
 11
154.314996255654
 21
746.6738475103309
 72
     1
 10
154.314996255654
 20
746.6738475103309
 11
154.314996255654
 21
745.3650720001259
 72
     1
 10
154.314996255654
 20
745.3650720001259
 11
153.0744918454011
 21
746.6738475103309
 97
       10
330
16D
330
16E
330
16F
330
19B
330
170
330
171
330
19A
330
19D
330
19C
330
16C
 75
     1
 76
     0
 52
45.0
 41
0.1
 77
     0
 78
     1
 53
45.0
 43
0.0
 44
0.0
 45
-0.0707106781186548
 46
0.0707106781186548
 79
     0
 98
        1
 10
0.0
 20
0.0
  0
HATCH
  5
27C
330
71
100
AcDbEntity
  8
1
  6
Continuous
 62
     2
100
AcDbHatch
 10
0.0
 20
0.0
 30
0.0
210
0.0
220
0.0
230
1.0
  2
_USER
 70
     0
 71
     1
 91
        1
 92
        1
 93
       10
 72
     1
 10
153.0744918454011
 20
746.6738475103309
 11
151.8816991432335
 21
746.6738475103309
 72
     1
 10
151.8816991432335
 20
746.6738475103309
 11
151.8816991432335
 21
743.62003798652
 72
     1
 10
151.8816991432335
 20
743.62003798652
 11
153.0744918454011
 21
743.62003798652
 72
     1
 10
153.0744918454011
 20
743.62003798652
 11
153.0744918454011
 21
744.9288134967245
 72
     1
 10
153.0744918454011
 20
744.9288134967245
 11
154.314996255654
 21
743.62003798652
 72
     1
 10
154.314996255654
 20
743.62003798652
 11
155.5077889578204
 21
743.62003798652
 72
     1
 10
155.5077889578204
 20
743.62003798652
 11
155.5077889578204
 21
746.6738475103309
 72
     1
 10
155.5077889578204
 20
746.6738475103309
 11
154.314996255654
 21
746.6738475103309
 72
     1
 10
154.314996255654
 20
746.6738475103309
 11
154.314996255654
 21
745.3650720001259
 72
     1
 10
154.314996255654
 20
745.3650720001259
 11
153.0744918454011
 21
746.6738475103309
 97
       10
330
16D
330
16E
330
16F
330
19B
330
170
330
171
330
19A
330
19D
330
19C
330
16C
 75
     1
 76
     0
 52
45.0
 41
0.1
 77
     0
 78
     1
 53
45.0
 43
0.0
 44
0.0
 45
-0.0707106781186548
 46
0.0707106781186548
 79
     0
 98
        1
 10
0.0
 20
0.0
  0
HATCH
  5
27D
330
71
100
AcDbEntity
  8
1
  6
Continuous
 62
     2
100
AcDbHatch
 10
0.0
 20
0.0
 30
0.0
210
0.0
220
0.0
230
1.0
  2
_USER
 70
     0
 71
     1
 91
        1
 92
        1
 93
       12
 72
     1
 10
152.0726969064657
 20
750.0330379865054
 11
152.0726969064657
 21
746.9792284626942
 72
     1
 10
152.0726969064657
 20
746.9792284626942
 11
150.8799042042993
 21
746.9792284626942
 72
     1
 10
150.8799042042993
 20
746.9792284626942
 11
150.8799042042993
 21
748.113500571538
 72
     1
 10
150.8799042042993
 20
748.113500571538
 11
149.8302466263918
 21
748.113500571538
 72
     1
 10
149.8302466263918
 20
748.113500571538
 11
149.8302466263918
 21
746.9792284626942
 72
     1
 10
149.8302466263918
 20
746.9792284626942
 11
148.6374539242252
 21
746.9792284626942
 72
     1
 10
148.6374539242252
 20
746.9792284626942
 11
148.6374539242252
 21
750.0330379865054
 72
     1
 10
148.6374539242252
 20
750.0330379865054
 11
149.8302466263918
 21
750.0330379865054
 72
     1
 10
149.8302466263918
 20
750.0330379865054
 11
149.8302466263918
 21
748.9642046531708
 72
     1
 10
149.8302466263918
 20
748.9642046531708
 11
150.8799042042993
 21
748.9642046531708
 72
     1
 10
150.8799042042993
 20
748.9642046531708
 11
150.8799042042993
 21
750.0330379865054
 72
     1
 10
150.8799042042993
 20
750.0330379865054
 11
152.0726969064657
 21
750.0330379865054
 97
       12
330
195
330
194
330
193
330
17B
330
17C
330
192
330
17D
330
191
330
190
330
18F
330
179
330
17A
 75
     1
 76
     0
 52
45.0
 41
0.1
 77
     0
 78
     1
 53
45.0
 43
0.0
 44
0.0
 45
-0.0707106781186548
 46
0.0707106781186548
 79
     0
 98
        1
 10
0.0
 20
0.0
  0
HATCH
  5
27E
330
71
100
AcDbEntity
  8
1
  6
Continuous
 62
     2
100
AcDbHatch
 10
0.0
 20
0.0
 30
0.0
210
0.0
220
0.0
230
1.0
  2
_USER
 70
     0
 71
     1
 91
        1
 92
        1
 93
       12
 72
     1
 10
152.0726969064657
 20
750.0330379865054
 11
152.0726969064657
 21
746.9792284626942
 72
     1
 10
152.0726969064657
 20
746.9792284626942
 11
150.8799042042993
 21
746.9792284626942
 72
     1
 10
150.8799042042993
 20
746.9792284626942
 11
150.8799042042993
 21
748.113500571538
 72
     1
 10
150.8799042042993
 20
748.113500571538
 11
149.8302466263918
 21
748.113500571538
 72
     1
 10
149.8302466263918
 20
748.113500571538
 11
149.8302466263918
 21
746.9792284626942
 72
     1
 10
149.8302466263918
 20
746.9792284626942
 11
148.6374539242252
 21
746.9792284626942
 72
     1
 10
148.6374539242252
 20
746.9792284626942
 11
148.6374539242252
 21
750.0330379865054
 72
     1
 10
148.6374539242252
 20
750.0330379865054
 11
149.8302466263918
 21
750.0330379865054
 72
     1
 10
149.8302466263918
 20
750.0330379865054
 11
149.8302466263918
 21
748.9642046531708
 72
     1
 10
149.8302466263918
 20
748.9642046531708
 11
150.8799042042993
 21
748.9642046531708
 72
     1
 10
150.8799042042993
 20
748.9642046531708
 11
150.8799042042993
 21
750.0330379865054
 72
     1
 10
150.8799042042993
 20
750.0330379865054
 11
152.0726969064657
 21
750.0330379865054
 97
       12
330
195
330
194
330
193
330
17B
330
17C
330
192
330
17D
330
191
330
190
330
18F
330
179
330
17A
 75
     1
 76
     0
 52
45.0
 41
0.1
 77
     0
 78
     1
 53
45.0
 43
0.0
 44
0.0
 45
-0.0707106781186548
 46
0.0707106781186548
 79
     0
 98
        1
 10
0.0
 20
0.0
  0
ENDBLK
  5
73
330
71
100
AcDbEntity
  8
0
100
AcDbBlockEnd
  0
BLOCK
  5
75
330
74
100
AcDbEntity
  8
0
100
AcDbBlockBegin
  2
_punkt
 70
     0
 10
263.9500007202546
 20
736.3265379865036
 30
0.0
  3
_punkt
  1

  0
LINE
  5
27F
330
74
100
AcDbEntity
  8
1
  6
Continuous
 62
     2
100
AcDbLine
 10
263.9500007202546
 20
736.3265379865036
 30
0.0
 11
263.9500007202546
 21
731.3265379865035
 31
0.0
  0
LINE
  5
280
330
74
100
AcDbEntity
  8
1
  6
Continuous
 62
     2
100
AcDbLine
 10
263.9500007202546
 20
736.3265379865036
 30
0.0
 11
268.9500007202536
 21
736.3265379865036
 31
0.0
  0
ENDBLK
  5
76
330
74
100
AcDbEntity
  8
0
100
AcDbBlockEnd
  0
BLOCK
  5
7A
330
77
100
AcDbEntity
  8
0
100
AcDbBlockBegin
  2
A4I_CS
 70
     0
 10
263.9500007202546
 20
731.3265379865035
 30
0.0
  3
A4I_CS
  1

  0
INSERT
  5
78
330
77
100
AcDbEntity
  8
1
100
AcDbBlockReference
  2
_rahmen
 10
263.9500007202546
 20
731.3265379865035
 30
0.0
  0
INSERT
  5
79
330
77
100
AcDbEntity
  8
1
100
AcDbBlockReference
  2
_punkt
 10
263.9500007202546
 20
736.3265379865036
 30
0.0
  0
ENDBLK
  5
7B
330
77
100
AcDbEntity
  8
0
100
AcDbBlockEnd
  0
BLOCK
  5
84
330
7C
100
AcDbEntity
  8
0
100
AcDbBlockBegin
  2
1
 70
     0
 10
0.0
 20
0.0
 30
0.0
  3
1
  1

  0
INSERT
  5
7D
330
7C
100
AcDbEntity
  8
0
100
AcDbBlockReference
  2
AllgSicht1
 10
209.8999999999995
 20
805.00000000001
 30
0.0
  0
INSERT
  5
7E
330
7C
100
AcDbEntity
  8
0
100
AcDbBlockReference
  2
Drfsicht1
 10
53.10000038147211
 20
803.9508295580238
 30
0.0
  0
INSERT
  5
7F
330
7C
100
AcDbEntity
  8
0
100
AcDbBlockReference
  2
Rckans1
 10
204.8999996185296
 20
875.00000000001
 30
0.0
  0
INSERT
  5
80
330
7C
100
AcDbEntity
  8
0
100
AcDbBlockReference
  2
SA_Links1
 10
127.0
 20
875.0000000000101
 30
0.0
  0
INSERT
  5
81
330
7C
100
AcDbEntity
  8
0
100
AcDbBlockReference
  2
SA_Rechts1
 10
-12.79999923706097
 20
875.00000000001
 30
0.0
  0
INSERT
  5
82
330
7C
100
AcDbEntity
  8
0
100
AcDbBlockReference
  2
Vordans1
 10
53.10000038147211
 20
875.00000000001
 30
0.0
  0
INSERT
  5
83
330
7C
100
AcDbEntity
  8
0
100
AcDbBlockReference
  2
A4I_CS
 10
263.9500007202546
 20
731.3265379865035
 30
0.0
  0
ENDBLK
  5
85
330
7C
100
AcDbEntity
  8
0
100
AcDbBlockEnd
  0
BLOCK
  5
100
330
F7
100
AcDbEntity
  8
0
100
AcDbBlockBegin
  2
*D17
 70
     1
 10
0.0
 20
0.0
 30
0.0
  3
*D17
  1

  0
LINE
  5
F8
330
F7
100
AcDbEntity
  8
1
  6
Continuous
 62
     2
100
AcDbLine
 10
118.8999999761179
 20
843.143473988459
 30
0.0
 11
125.8999999761179
 21
843.143473988459
 31
0.0
  0
LINE
  5
F9
330
F7
100
AcDbEntity
  8
1
  6
Continuous
 62
     2
100
AcDbLine
 10
125.8999999761179
 20
843.143473988459
 30
0.0
 11
128.099999976118
 21
843.143473988459
 31
0.0
  0
LINE
  5
FA
330
F7
100
AcDbEntity
  8
1
  6
Continuous
 62
     2
100
AcDbLine
 10
128.099999976118
 20
843.143473988459
 30
0.0
 11
141.3919635111221
 21
843.143473988459
 31
0.0
  0
LINE
  5
FB
330
F7
100
AcDbEntity
  8
1
  6
Continuous
 62
     2
100
AcDbLine
 10
125.8999999761179
 20
854.050829579173
 30
0.0
 11
125.8999999761179
 21
841.143473988459
 31
0.0
  0
LINE
  5
FC
330
F7
100
AcDbEntity
  8
1
  6
Continuous
 62
     2
100
AcDbLine
 10
128.099999976118
 20
854.0508295791712
 30
0.0
 11
128.099999976118
 21
841.143473988459
 31
0.0
  0
SOLID
  5
FD
330
F7
100
AcDbEntity
  8
1
 62
     2
100
AcDbTrace
 10
122.3999999761179
 20
842.6826902469031
 30
0.0
 11
122.3999999761179
 21
843.604257730015
 31
0.0
 12
125.8999999761179
 22
843.143473988459
 32
0.0
 13
125.8999999761179
 23
843.143473988459
 33
0.0
  0
SOLID
  5
FE
330
F7
100
AcDbEntity
  8
1
 62
     2
100
AcDbTrace
 10
131.599999976118
 20
843.604257730015
 30
0.0
 11
131.599999976118
 21
842.6826902469031
 31
0.0
 12
128.099999976118
 22
843.143473988459
 32
0.0
 13
128.099999976118
 23
843.143473988459
 33
0.0
  0
MTEXT
  5
FF
330
F7
100
AcDbEntity
  8
1
 62
     3
100
AcDbMText
 10
134.9169635111221
 20
845.493473988459
 30
0.0
 40
3.5
 41
0.0
 71
     7
 72
     1
  1
2,2
  7
CONVERTER_11
 11
0.9999999999970619
 21
2.424068405545306E-6
 31
0.0
 73
     1
 44
0.60024009603842
  0
ENDBLK
  5
101
330
F7
100
AcDbEntity
  8
0
100
AcDbBlockEnd
  0
BLOCK
  5
13A
330
132
100
AcDbEntity
  8
0
100
AcDbBlockBegin
  2
*D18
 70
     1
 10
0.0
 20
0.0
 30
0.0
  3
*D18
  1

  0
LINE
  5
133
330
132
100
AcDbEntity
  8
1
  6
Continuous
 62
     2
100
AcDbLine
 10
113.1404798686303
 20
854.0508295791712
 30
0.0
 11
113.1404798686303
 21
895.9516639141852
 31
0.0
  0
LINE
  5
134
330
132
100
AcDbEntity
  8
1
  6
Continuous
 62
     2
100
AcDbLine
 10
81.71232812743855
 20
854.0508295791712
 30
0.0
 11
101.3414200775396
 21
854.0508295791712
 31
0.0
  0
LINE
  5
135
330
132
100
AcDbEntity
  8
1
  6
Continuous
 62
     2
100
AcDbLine
 10
105.4412977062123
 20
854.0508295791712
 30
0.0
 11
115.1404798686303
 21
854.0508295791712
 31
0.0
  0
LINE
  5
136
330
132
100
AcDbEntity
  8
1
  6
Continuous
 62
     2
100
AcDbLine
 10
49.83382644496388
 20
895.9516639141852
 30
0.0
 11
115.1404798686303
 21
895.9516639141852
 31
0.0
  0
SOLID
  5
137
330
132
100
AcDbEntity
  8
1
 62
     2
100
AcDbTrace
 10
112.6796961270744
 20
857.5508295791712
 30
0.0
 11
113.6012636101862
 21
857.5508295791712
 31
0.0
 12
113.1404798686303
 22
854.0508295791712
 32
0.0
 13
113.1404798686303
 23
854.0508295791712
 33
0.0
  0
SOLID
  5
138
330
132
100
AcDbEntity
  8
1
 62
     2
100
AcDbTrace
 10
113.6012636101862
 20
892.4516639141852
 30
0.0
 11
112.6796961270744
 21
892.4516639141852
 31
0.0
 12
113.1404798686303
 22
895.9516639141852
 32
0.0
 13
113.1404798686303
 23
895.9516639141852
 33
0.0
  0
MTEXT
  5
139
330
132
100
AcDbEntity
  8
1
 62
     3
100
AcDbMText
 10
110.7904798686303
 20
869.746842754755
 30
0.0
 40
3.5
 41
0.0
 71
     7
 72
     1
  1
41,9
  7
CONVERTER_11
 11
0.0
 21
1.0
 31
0.0
 73
     1
 44
0.60024009603842
  0
ENDBLK
  5
13B
330
132
100
AcDbEntity
  8
0
100
AcDbBlockEnd
  0
BLOCK
  5
145
330
13E
100
AcDbEntity
  8
0
100
AcDbBlockBegin
  2
*D19
 70
     1
 10
0.0
 20
0.0
 30
0.0
  3
*D19
  1

  0
LINE
  5
13F
330
13E
100
AcDbEntity
  8
1
  6
Continuous
 62
     2
100
AcDbLine
 10
102.9999993583259
 20
843.7025823557008
 30
0.0
 11
3.19999934628824
 21
843.7025823557008
 31
0.0
  0
LINE
  5
140
330
13E
100
AcDbEntity
  8
1
  6
Continuous
 62
     2
100
AcDbLine
 10
102.9999993583259
 20
858.7887389730357
 30
0.0
 11
102.9999993583259
 21
842.2025823557008
 31
0.0
  0
LINE
  5
141
330
13E
100
AcDbEntity
  8
1
  6
Continuous
 62
     2
100
AcDbLine
 10
3.19999934628824
 20
859.8508295791802
 30
0.0
 11
3.19999934628824
 21
842.2025823557008
 31
0.0
  0
SOLID
  5
142
330
13E
100
AcDbEntity
  8
1
 62
     2
100
AcDbTrace
 10
99.49999935832591
 20
843.2417986141448
 30
0.0
 11
99.49999935832591
 21
844.1633660972567
 31
0.0
 12
102.9999993583259
 22
843.7025823557008
 32
0.0
 13
102.9999993583259
 23
843.7025823557008
 33
0.0
  0
SOLID
  5
143
330
13E
100
AcDbEntity
  8
1
 62
     2
100
AcDbTrace
 10
6.69999934628824
 20
844.1633660972567
 30
0.0
 11
6.69999934628824
 21
843.2417986141448
 31
0.0
 12
3.19999934628824
 22
843.7025823557008
 32
0.0
 13
3.19999934628824
 23
843.7025823557008
 33
0.0
  0
MTEXT
  5
144
330
13E
100
AcDbEntity
  8
1
 62
     3
100
AcDbMText
 10
48.28750038146904
 20
845.5525823557007
 30
0.0
 40
3.5
 41
0.0
 71
     7
 72
     1
  1
99,8
  7
CONVERTER_11
 11
0.9999999999970619
 21
2.424068405545306E-6
 31
0.0
 73
     1
 44
0.60024009603842
  0
ENDBLK
  5
146
330
13E
100
AcDbEntity
  8
0
100
AcDbBlockEnd
  0
ENDSEC
  0
SECTION
  2
ENTITIES
  0
INSERT
  5
86
330
1F
100
AcDbEntity
  8
1
100
AcDbBlockReference
  2
1
 10
0.0
 20
0.0
 30
0.0
  0
ENDSEC
  0
SECTION
  2
OBJECTS
  0
DICTIONARY
  5
C
330
0
100
AcDbDictionary
281
     1
  3
ACAD_GROUP
350
D
  3
ACAD_LAYOUT
350
1A
  3
ACAD_MATERIAL
350
3B
  3
ACAD_MLEADERSTYLE
350
2A8
  3
ACAD_MLINESTYLE
350
17
  3
ACAD_PLOTSETTINGS
350
19
  3
ACAD_PLOTSTYLENAME
350
E
  3
ACAD_TABLESTYLE
350
2A7
  3
ACAD_VISUALSTYLE
350
2A
  0
DICTIONARY
  5
D
102
{ACAD_REACTORS
330
C
102
}
330
C
100
AcDbDictionary
281
     1
  0
DICTIONARY
  5
1A
102
{ACAD_REACTORS
330
C
102
}
330
C
100
AcDbDictionary
281
     1
  3
Layout1
350
1E
  3
Layout2
350
26
  3
Model
350
22
  0
DICTIONARY
  5
3B
102
{ACAD_REACTORS
330
C
102
}
330
C
100
AcDbDictionary
281
     1
  3
ByBlock
350
3D
  3
ByLayer
350
3C
  3
Global
350
3E
  0
DICTIONARY
  5
2A8
102
{ACAD_REACTORS
330
C
102
}
330
C
100
AcDbDictionary
281
     1
  0
DICTIONARY
  5
17
102
{ACAD_REACTORS
330
C
102
}
330
C
100
AcDbDictionary
281
     1
  3
Standard
350
18
  0
DICTIONARY
  5
19
102
{ACAD_REACTORS
330
C
102
}
330
C
100
AcDbDictionary
281
     1
  0
ACDBDICTIONARYWDFLT
  5
E
102
{ACAD_REACTORS
330
C
102
}
330
C
100
AcDbDictionary
281
     1
  3
Normal
350
F
100
AcDbDictionaryWithDefault
340
F
  0
DICTIONARY
  5
2A7
102
{ACAD_REACTORS
330
C
102
}
330
C
100
AcDbDictionary
281
     1
  0
DICTIONARY
  5
2A
102
{ACAD_REACTORS
330
C
102
}
330
C
100
AcDbDictionary
281
     1
  3
2dWireframe
350
2F
  3
3D Hidden
350
31
  3
3dWireframe
350
30
  3
Basic
350
32
  3
Brighten
350
36
  3
ColorChange
350
3A
  3
Conceptual
350
34
  3
Dim
350
35
  3
Facepattern
350
39
  3
Flat
350
2B
  3
FlatWithEdges
350
2C
  3
Gouraud
350
2D
  3
GouraudWithEdges
350
2E
  3
Linepattern
350
38
  3
Realistic
350
33
  3
Thicken
350
37
  0
LAYOUT
  5
1E
102
{ACAD_REACTORS
330
1A
102
}
330
1A
100
AcDbPlotSettings
  1

  2
none_device
  4

  6

 40
0.0
 41
0.0
 42
0.0
 43
0.0
 44
0.0
 45
0.0
 46
0.0
 47
0.0
 48
0.0
 49
0.0
140
0.0
141
0.0
142
1.0
143
1.0
 70
   688
 72
     0
 73
     0
 74
     5
  7

 75
    16
 76
     0
 77
     2
 78
   300
147
1.0
148
0.0
149
0.0
100
AcDbLayout
  1
Layout1
 70
     1
 71
     1
 10
0.0
 20
0.0
 11
12.0
 21
9.0
 12
0.0
 22
0.0
 32
0.0
 14
1.00000000000000E+20
 24
1.00000000000000E+20
 34
1.00000000000000E+20
 15
-1.00000000000000E+20
 25
-1.00000000000000E+20
 35
-1.00000000000000E+20
146
0.0
 13
0.0
 23
0.0
 33
0.0
 16
1.0
 26
0.0
 36
0.0
 17
0.0
 27
1.0
 37
0.0
 76
     0
330
1B
  0
LAYOUT
  5
26
102
{ACAD_REACTORS
330
1A
102
}
330
1A
100
AcDbPlotSettings
  1

  2
none_device
  4

  6

 40
0.0
 41
0.0
 42
0.0
 43
0.0
 44
0.0
 45
0.0
 46
0.0
 47
0.0
 48
0.0
 49
0.0
140
0.0
141
0.0
142
1.0
143
1.0
 70
   688
 72
     0
 73
     0
 74
     5
  7

 75
    16
 76
     0
 77
     2
 78
   300
147
1.0
148
0.0
149
0.0
100
AcDbLayout
  1
Layout2
 70
     1
 71
     2
 10
0.0
 20
0.0
 11
0.0
 21
0.0
 12
0.0
 22
0.0
 32
0.0
 14
0.0
 24
0.0
 34
0.0
 15
0.0
 25
0.0
 35
0.0
146
0.0
 13
0.0
 23
0.0
 33
0.0
 16
1.0
 26
0.0
 36
0.0
 17
0.0
 27
1.0
 37
0.0
 76
     0
330
23
  0
LAYOUT
  5
22
102
{ACAD_REACTORS
330
1A
102
}
330
1A
100
AcDbPlotSettings
  1

  2
none_device
  4

  6

 40
0.0
 41
0.0
 42
0.0
 43
0.0
 44
0.0
 45
0.0
 46
0.0
 47
0.0
 48
0.0
 49
0.0
140
0.0
141
0.0
142
1.0
143
1.0
 70
  1712
 72
     0
 73
     0
 74
     0
  7

 75
     0
 76
     0
 77
     2
 78
   300
147
1.0
148
0.0
149
0.0
100
AcDbLayout
  1
Model
 70
     1
 71
     0
 10
0.0
 20
0.0
 11
12.0
 21
9.0
 12
0.0
 22
0.0
 32
0.0
 14
-28.0499992797445
 24
731.3265379865035
 34
0.0
 15
268.9500007202536
 25
941.3265379865036
 35
0.0
146
0.0
 13
0.0
 23
0.0
 33
0.0
 16
1.0
 26
0.0
 36
0.0
 17
0.0
 27
1.0
 37
0.0
 76
     0
330
1F
331
29
  0
MATERIAL
  5
3D
102
{ACAD_REACTORS
330
3B
102
}
102
{ACAD_XDICTIONARY
360
2A3
102
}
330
3B
100
AcDbMaterial
  1
ByBlock
  0
MATERIAL
  5
3C
102
{ACAD_REACTORS
330
3B
102
}
102
{ACAD_XDICTIONARY
360
2A1
102
}
330
3B
100
AcDbMaterial
  1
ByLayer
  0
MATERIAL
  5
3E
102
{ACAD_REACTORS
330
3B
102
}
102
{ACAD_XDICTIONARY
360
2A5
102
}
330
3B
100
AcDbMaterial
  1
Global
  0
MLINESTYLE
  5
18
102
{ACAD_REACTORS
330
17
102
}
330
17
100
AcDbMlineStyle
  2
Standard
 70
     0
  3

 62
   256
 51
90.0
 52
90.0
 71
     2
 49
0.5
 62
   256
  6
BYLAYER
 49
-0.5
 62
   256
  6
BYLAYER
  0
ACDBPLACEHOLDER
  5
F
102
{ACAD_REACTORS
330
E
102
}
330
E
  0
VISUALSTYLE
  5
2F
102
{ACAD_REACTORS
330
2A
102
}
102
{ACAD_XDICTIONARY
360
289
102
}
330
2A
100
AcDbVisualStyle
  2
2dWireframe
 70
     4
 71
     0
 72
     2
 73
     0
 90
        0
 40
-0.6
 41
-30.0
 62
     5
 63
     7
421
 16777215
 74
     1
 91
        4
 64
     7
 65
   257
 75
     1
175
     1
 42
1.0
 92
        0
 66
   257
 43
1.0
 76
     1
 77
     6
 78
     2
 67
     7
 79
     5
170
     0
171
     0
290
     0
174
     0
 93
        1
 44
0.0
173
     0
291
     0
 45
0.0
1001
ACAD
1000
AcDbSavedByObjectVersion
1070
     0
  0
VISUALSTYLE
  5
31
102
{ACAD_REACTORS
330
2A
102
}
102
{ACAD_XDICTIONARY
360
28D
102
}
330
2A
100
AcDbVisualStyle
  2
3D Hidden
 70
     6
 71
     1
 72
     2
 73
     2
 90
        0
 40
-0.6
 41
-30.0
 62
     5
 63
     7
421
 16777215
 74
     2
 91
        2
 64
     7
 65
   257
 75
     2
175
     1
 42
40.0
 92
        0
 66
   257
 43
1.0
 76
     1
 77
     6
 78
     2
 67
     7
 79
     3
170
     0
171
     0
290
     0
174
     0
 93
        1
 44
0.0
173
     0
291
     0
 45
0.0
1001
ACAD
1000
AcDbSavedByObjectVersion
1070
     0
  0
VISUALSTYLE
  5
30
102
{ACAD_REACTORS
330
2A
102
}
102
{ACAD_XDICTIONARY
360
28B
102
}
330
2A
100
AcDbVisualStyle
  2
3dWireframe
 70
     5
 71
     0
 72
     2
 73
     0
 90
        0
 40
-0.6
 41
-30.0
 62
     5
 63
     7
421
 16777215
 74
     1
 91
        4
 64
     7
 65
   257
 75
     1
175
     1
 42
1.0
 92
        0
 66
   257
 43
1.0
 76
     1
 77
     6
 78
     2
 67
     7
 79
     5
170
     0
171
     0
290
     0
174
     0
 93
        1
 44
0.0
173
     0
291
     0
 45
0.0
1001
ACAD
1000
AcDbSavedByObjectVersion
1070
     0
  0
VISUALSTYLE
  5
32
102
{ACAD_REACTORS
330
2A
102
}
102
{ACAD_XDICTIONARY
360
28F
102
}
330
2A
100
AcDbVisualStyle
  2
Basic
 70
     7
 71
     1
 72
     0
 73
     1
 90
        0
 40
-0.6
 41
-30.0
 62
     5
 63
     7
421
 16777215
 74
     0
 91
        4
 64
     7
 65
   257
 75
     1
175
     1
 42
1.0
 92
        8
 66
     7
 43
1.0
 76
     1
 77
     6
 78
     2
 67
     7
 79
     5
170
     0
171
     0
290
     0
174
     0
 93
        1
 44
0.0
173
     0
291
     1
 45
0.0
1001
ACAD
1000
AcDbSavedByObjectVersion
1070
     0
  0
VISUALSTYLE
  5
36
102
{ACAD_REACTORS
330
2A
102
}
102
{ACAD_XDICTIONARY
360
297
102
}
330
2A
100
AcDbVisualStyle
  2
Brighten
 70
    12
 71
     2
 72
     2
 73
     0
 90
        0
 40
-0.6
 41
-30.0
 62
     5
 63
     7
421
 16777215
 74
     1
 91
        4
 64
     7
 65
   257
 75
     1
175
     1
 42
1.0
 92
        8
 66
     7
 43
1.0
 76
     1
 77
     6
 78
     2
 67
     7
 79
     5
170
     0
171
     0
290
     0
174
     0
 93
        1
 44
50.0
173
     0
291
     1
 45
0.0
1001
ACAD
1000
AcDbSavedByObjectVersion
1070
     0
  0
VISUALSTYLE
  5
3A
102
{ACAD_REACTORS
330
2A
102
}
102
{ACAD_XDICTIONARY
360
29F
102
}
330
2A
100
AcDbVisualStyle
  2
ColorChange
 70
    16
 71
     2
 72
     2
 73
     3
 90
        0
 40
-0.6
 41
-30.0
 62
     5
 63
     8
421
  8421504
 74
     1
 91
        4
 64
     7
 65
   257
 75
     1
175
     1
 42
1.0
 92
        8
 66
     8
424
  8421504
 43
1.0
 76
     1
 77
     6
 78
     2
 67
     7
 79
     5
170
     0
171
     0
290
     0
174
     0
 93
        1
 44
0.0
173
     0
291
     1
 45
0.0
1001
ACAD
1000
AcDbSavedByObjectVersion
1070
     0
  0
VISUALSTYLE
  5
34
102
{ACAD_REACTORS
330
2A
102
}
102
{ACAD_XDICTIONARY
360
293
102
}
330
2A
100
AcDbVisualStyle
  2
Conceptual
 70
     9
 71
     3
 72
     2
 73
     0
 90
        0
 40
-0.6
 41
-30.0
 62
     5
 63
     7
421
 16777215
 74
     2
 91
        2
 64
     7
 65
   257
 75
     1
175
     1
 42
40.0
 92
        8
 66
     7
 43
1.0
 76
     1
 77
     6
 78
     2
 67
     7
 79
     3
170
     0
171
     0
290
     0
174
     0
 93
        1
 44
0.0
173
     0
291
     0
 45
0.0
1001
ACAD
1000
AcDbSavedByObjectVersion
1070
     0
  0
VISUALSTYLE
  5
35
102
{ACAD_REACTORS
330
2A
102
}
102
{ACAD_XDICTIONARY
360
295
102
}
330
2A
100
AcDbVisualStyle
  2
Dim
 70
    11
 71
     2
 72
     2
 73
     0
 90
        0
 40
-0.6
 41
-30.0
 62
     5
 63
     7
421
 16777215
 74
     1
 91
        4
 64
     7
 65
   257
 75
     1
175
     1
 42
1.0
 92
        8
 66
     7
 43
1.0
 76
     1
 77
     6
 78
     2
 67
     7
 79
     5
170
     0
171
     0
290
     0
174
     0
 93
        1
 44
-50.0
173
     0
291
     1
 45
0.0
1001
ACAD
1000
AcDbSavedByObjectVersion
1070
     0
  0
VISUALSTYLE
  5
39
102
{ACAD_REACTORS
330
2A
102
}
102
{ACAD_XDICTIONARY
360
29D
102
}
330
2A
100
AcDbVisualStyle
  2
Facepattern
 70
    15
 71
     2
 72
     2
 73
     0
 90
        0
 40
-0.6
 41
-30.0
 62
     5
 63
     7
421
 16777215
 74
     1
 91
        4
 64
     7
 65
   257
 75
     1
175
     1
 42
1.0
 92
        8
 66
     7
 43
1.0
 76
     1
 77
     6
 78
     2
 67
     7
 79
     5
170
     0
171
     0
290
     0
174
     0
 93
        1
 44
0.0
173
     0
291
     1
 45
0.0
1001
ACAD
1000
AcDbSavedByObjectVersion
1070
     0
  0
VISUALSTYLE
  5
2B
102
{ACAD_REACTORS
330
2A
102
}
102
{ACAD_XDICTIONARY
360
281
102
}
330
2A
100
AcDbVisualStyle
  2
Flat
 70
     0
 71
     2
 72
     1
 73
     1
 90
        2
 40
-0.6
 41
30.0
 62
     5
 63
     7
421
 16777215
 74
     0
 91
        4
 64
     7
 65
   257
 75
     1
175
     1
 42
1.0
 92
        8
 66
     7
 43
1.0
 76
     1
 77
     6
 78
     2
 67
     7
 79
     5
170
     0
171
     0
290
     0
174
     0
 93
       13
 44
0.0
173
     0
291
     1
 45
0.0
1001
ACAD
1000
AcDbSavedByObjectVersion
1070
     0
  0
VISUALSTYLE
  5
2C
102
{ACAD_REACTORS
330
2A
102
}
102
{ACAD_XDICTIONARY
360
283
102
}
330
2A
100
AcDbVisualStyle
  2
FlatWithEdges
 70
     1
 71
     2
 72
     1
 73
     1
 90
        2
 40
-0.6
 41
30.0
 62
     5
 63
     7
421
 16777215
 74
     1
 91
        4
 64
     7
 65
   257
 75
     1
175
     1
 42
1.0
 92
        0
 66
   257
 43
1.0
 76
     1
 77
     6
 78
     2
 67
     7
 79
     5
170
     0
171
     0
290
     0
174
     0
 93
       13
 44
0.0
173
     0
291
     1
 45
0.0
1001
ACAD
1000
AcDbSavedByObjectVersion
1070
     0
  0
VISUALSTYLE
  5
2D
102
{ACAD_REACTORS
330
2A
102
}
102
{ACAD_XDICTIONARY
360
285
102
}
330
2A
100
AcDbVisualStyle
  2
Gouraud
 70
     2
 71
     2
 72
     2
 73
     1
 90
        2
 40
-0.6
 41
30.0
 62
     5
 63
     7
421
 16777215
 74
     0
 91
        4
 64
     7
 65
   257
 75
     1
175
     1
 42
1.0
 92
        0
 66
     7
 43
1.0
 76
     1
 77
     6
 78
     2
 67
     7
 79
     5
170
     0
171
     0
290
     0
174
     0
 93
       13
 44
0.0
173
     0
291
     1
 45
0.0
1001
ACAD
1000
AcDbSavedByObjectVersion
1070
     0
  0
VISUALSTYLE
  5
2E
102
{ACAD_REACTORS
330
2A
102
}
102
{ACAD_XDICTIONARY
360
287
102
}
330
2A
100
AcDbVisualStyle
  2
GouraudWithEdges
 70
     3
 71
     2
 72
     2
 73
     1
 90
        2
 40
-0.6
 41
30.0
 62
     5
 63
     7
421
 16777215
 74
     1
 91
        4
 64
     7
 65
   257
 75
     1
175
     1
 42
1.0
 92
        0
 66
   257
 43
1.0
 76
     1
 77
     6
 78
     2
 67
     7
 79
     5
170
     0
171
     0
290
     0
174
     0
 93
       13
 44
0.0
173
     0
291
     1
 45
0.0
1001
ACAD
1000
AcDbSavedByObjectVersion
1070
     0
  0
VISUALSTYLE
  5
38
102
{ACAD_REACTORS
330
2A
102
}
102
{ACAD_XDICTIONARY
360
29B
102
}
330
2A
100
AcDbVisualStyle
  2
Linepattern
 70
    14
 71
     2
 72
     2
 73
     0
 90
        0
 40
-0.6
 41
-30.0
 62
     5
 63
     7
421
 16777215
 74
     1
 91
        4
 64
     7
 65
   257
 75
     7
175
     7
 42
1.0
 92
        8
 66
     7
 43
1.0
 76
     1
 77
     6
 78
     2
 67
     7
 79
     5
170
     0
171
     0
290
     0
174
     0
 93
        1
 44
0.0
173
     0
291
     1
 45
0.0
1001
ACAD
1000
AcDbSavedByObjectVersion
1070
     0
  0
VISUALSTYLE
  5
33
102
{ACAD_REACTORS
330
2A
102
}
102
{ACAD_XDICTIONARY
360
291
102
}
330
2A
100
AcDbVisualStyle
  2
Realistic
 70
     8
 71
     2
 72
     2
 73
     0
 90
        0
 40
-0.6
 41
-30.0
 62
     5
 63
     7
421
 16777215
 74
     1
 91
        0
 64
     7
 65
   257
 75
     1
175
     1
 42
1.0
 92
        8
 66
     8
424
  7895160
 43
1.0
 76
     1
 77
     6
 78
     2
 67
     7
 79
     5
170
     0
171
     0
290
     0
174
     0
 93
       13
 44
0.0
173
     0
291
     0
 45
0.0
1001
ACAD
1000
AcDbSavedByObjectVersion
1070
     0
  0
VISUALSTYLE
  5
37
102
{ACAD_REACTORS
330
2A
102
}
102
{ACAD_XDICTIONARY
360
299
102
}
330
2A
100
AcDbVisualStyle
  2
Thicken
 70
    13
 71
     2
 72
     2
 73
     0
 90
        0
 40
-0.6
 41
-30.0
 62
     5
 63
     7
421
 16777215
 74
     1
 91
        4
 64
     7
 65
   257
 75
     1
175
     1
 42
1.0
 92
       12
 66
     7
 43
1.0
 76
     1
 77
     6
 78
     2
 67
     7
 79
     5
170
     0
171
     0
290
     0
174
     0
 93
        1
 44
0.0
173
     0
291
     1
 45
0.0
1001
ACAD
1000
AcDbSavedByObjectVersion
1070
     0
  0
DICTIONARY
  5
2A3
330
3D
100
AcDbDictionary
280
     1
281
     1
  3
ACAD_XREC_ROUNDTRIP
360
2A4
  0
DICTIONARY
  5
2A1
330
3C
100
AcDbDictionary
280
     1
281
     1
  3
ACAD_XREC_ROUNDTRIP
360
2A2
  0
DICTIONARY
  5
2A5
330
3E
100
AcDbDictionary
280
     1
281
     1
  3
ACAD_XREC_ROUNDTRIP
360
2A6
  0
DICTIONARY
  5
289
330
2F
100
AcDbDictionary
280
     1
281
     1
  3
ACAD_XREC_ROUNDTRIP
360
28A
  0
DICTIONARY
  5
28D
330
31
100
AcDbDictionary
280
     1
281
     1
  3
ACAD_XREC_ROUNDTRIP
360
28E
  0
DICTIONARY
  5
28B
330
30
100
AcDbDictionary
280
     1
281
     1
  3
ACAD_XREC_ROUNDTRIP
360
28C
  0
DICTIONARY
  5
28F
330
32
100
AcDbDictionary
280
     1
281
     1
  3
ACAD_XREC_ROUNDTRIP
360
290
  0
DICTIONARY
  5
297
330
36
100
AcDbDictionary
280
     1
281
     1
  3
ACAD_XREC_ROUNDTRIP
360
298
  0
DICTIONARY
  5
29F
330
3A
100
AcDbDictionary
280
     1
281
     1
  3
ACAD_XREC_ROUNDTRIP
360
2A0
  0
DICTIONARY
  5
293
330
34
100
AcDbDictionary
280
     1
281
     1
  3
ACAD_XREC_ROUNDTRIP
360
294
  0
DICTIONARY
  5
295
330
35
100
AcDbDictionary
280
     1
281
     1
  3
ACAD_XREC_ROUNDTRIP
360
296
  0
DICTIONARY
  5
29D
330
39
100
AcDbDictionary
280
     1
281
     1
  3
ACAD_XREC_ROUNDTRIP
360
29E
  0
DICTIONARY
  5
281
330
2B
100
AcDbDictionary
280
     1
281
     1
  3
ACAD_XREC_ROUNDTRIP
360
282
  0
DICTIONARY
  5
283
330
2C
100
AcDbDictionary
280
     1
281
     1
  3
ACAD_XREC_ROUNDTRIP
360
284
  0
DICTIONARY
  5
285
330
2D
100
AcDbDictionary
280
     1
281
     1
  3
ACAD_XREC_ROUNDTRIP
360
286
  0
DICTIONARY
  5
287
330
2E
100
AcDbDictionary
280
     1
281
     1
  3
ACAD_XREC_ROUNDTRIP
360
288
  0
DICTIONARY
  5
29B
330
38
100
AcDbDictionary
280
     1
281
     1
  3
ACAD_XREC_ROUNDTRIP
360
29C
  0
DICTIONARY
  5
291
330
33
100
AcDbDictionary
280
     1
281
     1
  3
ACAD_XREC_ROUNDTRIP
360
292
  0
DICTIONARY
  5
299
330
37
100
AcDbDictionary
280
     1
281
     1
  3
ACAD_XREC_ROUNDTRIP
360
29A
  0
XRECORD
  5
2A4
102
{ACAD_REACTORS
330
2A3
102
}
330
2A3
100
AcDbXrecord
280
     1
102
MATERIAL
148
0.0
149
0.0
149
0.0
 93
        0
 94
      127
282
     0
 72
     1
 77
     1
171
     1
175
     1
179
     1
273
     0
  0
XRECORD
  5
2A2
102
{ACAD_REACTORS
330
2A1
102
}
330
2A1
100
AcDbXrecord
280
     1
102
MATERIAL
148
0.0
149
0.0
149
0.0
 93
        0
 94
      127
282
     0
 72
     1
 77
     1
171
     1
175
     1
179
     1
273
     0
  0
XRECORD
  5
2A6
102
{ACAD_REACTORS
330
2A5
102
}
330
2A5
100
AcDbXrecord
280
     1
102
MATERIAL
148
0.0
149
0.0
149
0.0
 93
        0
 94
      127
282
     0
 72
     1
 77
     1
171
     1
175
     1
179
     1
273
     0
  0
XRECORD
  5
28A
102
{ACAD_REACTORS
330
289
102
}
330
289
100
AcDbXrecord
280
     1
102
RTVSPropertyOp0
 70
     1
102
RTVSPropertyOp1
 70
     1
102
RTVSPropertyOp2
 70
     1
102
RTVSPropertyOp3
 70
     1
102
RTVSPropertyOp4
 70
     1
102
RTVSPropertyOp5
 70
     1
102
RTVSPropertyOp6
 70
     1
102
RTVSPropertyOp7
 70
     1
102
RTVSPropertyOp8
 70
     1
102
RTVSPropertyOp9
 70
     1
102
RTVSPropertyOp10
 70
     1
102
RTVSPropertyOp11
 70
     1
102
RTVSPropertyOp12
 70
     1
102
RTVSPropertyOp13
 70
     1
102
RTVSPropertyOp14
 70
     1
102
RTVSPropertyOp15
 70
     1
102
RTVSPropertyOp16
 70
     1
102
RTVSPropertyOp17
 70
     1
102
RTVSPropertyOp18
 70
     1
102
RTVSPropertyOp19
 70
     1
102
RTVSPropertyOp20
 70
     1
102
RTVSPropertyOp21
 70
     1
102
RTVSPropertyOp22
 70
     1
102
RTVSPropertyOp23
 70
     1
102
RTVSPropertyOp24
 70
     1
102
RTVSPropertyOp25
 70
     1
102
RTVSPropertyOp26
 70
     1
102
RTVSPropertyOp27
 70
     1
102
RTVSPropertyOp28
 70
     1
102
RTVSPropertyOp29
 70
     1
102
RTVSPropertyOp30
 70
     1
102
RTVSPropertyOp31
 70
     1
102
RTVSPropertyOp32
 70
     1
  0
XRECORD
  5
28E
102
{ACAD_REACTORS
330
28D
102
}
330
28D
100
AcDbXrecord
280
     1
102
RTVSPropertyOp0
 70
     1
102
RTVSPropertyOp1
 70
     1
102
RTVSPropertyOp2
 70
     1
102
RTVSPropertyOp3
 70
     1
102
RTVSPropertyOp4
 70
     1
102
RTVSPropertyOp5
 70
     1
102
RTVSPropertyOp6
 70
     1
102
RTVSPropertyOp7
 70
     1
102
RTVSPropertyOp8
 70
     1
102
RTVSPropertyOp9
 70
     1
102
RTVSPropertyOp10
 70
     1
102
RTVSPropertyOp11
 70
     1
102
RTVSPropertyOp12
 70
     1
102
RTVSPropertyOp13
 70
     1
102
RTVSPropertyOp14
 70
     1
102
RTVSPropertyOp15
 70
     1
102
RTVSPropertyOp16
 70
     1
102
RTVSPropertyOp17
 70
     1
102
RTVSPropertyOp18
 70
     1
102
RTVSPropertyOp19
 70
     1
102
RTVSPropertyOp20
 70
     1
102
RTVSPropertyOp21
 70
     1
102
RTVSPropertyOp22
 70
     1
102
RTVSPropertyOp23
 70
     1
102
RTVSPropertyOp24
 70
     1
102
RTVSPropertyOp25
 70
     1
102
RTVSPropertyOp26
 70
     1
102
RTVSPropertyOp27
 70
     1
102
RTVSPropertyOp28
 70
     1
102
RTVSPropertyOp29
 70
     1
102
RTVSPropertyOp30
 70
     1
102
RTVSPropertyOp31
 70
     1
102
RTVSPropertyOp32
 70
     1
  0
XRECORD
  5
28C
102
{ACAD_REACTORS
330
28B
102
}
330
28B
100
AcDbXrecord
280
     1
102
RTVSPropertyOp0
 70
     1
102
RTVSPropertyOp1
 70
     1
102
RTVSPropertyOp2
 70
     1
102
RTVSPropertyOp3
 70
     1
102
RTVSPropertyOp4
 70
     1
102
RTVSPropertyOp5
 70
     1
102
RTVSPropertyOp6
 70
     1
102
RTVSPropertyOp7
 70
     1
102
RTVSPropertyOp8
 70
     1
102
RTVSPropertyOp9
 70
     1
102
RTVSPropertyOp10
 70
     1
102
RTVSPropertyOp11
 70
     1
102
RTVSPropertyOp12
 70
     1
102
RTVSPropertyOp13
 70
     1
102
RTVSPropertyOp14
 70
     1
102
RTVSPropertyOp15
 70
     1
102
RTVSPropertyOp16
 70
     1
102
RTVSPropertyOp17
 70
     1
102
RTVSPropertyOp18
 70
     1
102
RTVSPropertyOp19
 70
     1
102
RTVSPropertyOp20
 70
     1
102
RTVSPropertyOp21
 70
     1
102
RTVSPropertyOp22
 70
     1
102
RTVSPropertyOp23
 70
     1
102
RTVSPropertyOp24
 70
     1
102
RTVSPropertyOp25
 70
     1
102
RTVSPropertyOp26
 70
     1
102
RTVSPropertyOp27
 70
     1
102
RTVSPropertyOp28
 70
     1
102
RTVSPropertyOp29
 70
     1
102
RTVSPropertyOp30
 70
     1
102
RTVSPropertyOp31
 70
     1
102
RTVSPropertyOp32
 70
     1
  0
XRECORD
  5
290
102
{ACAD_REACTORS
330
28F
102
}
330
28F
100
AcDbXrecord
280
     1
102
RTVSPropertyOp0
 70
     1
102
RTVSPropertyOp1
 70
     1
102
RTVSPropertyOp2
 70
     1
102
RTVSPropertyOp3
 70
     1
102
RTVSPropertyOp4
 70
     1
102
RTVSPropertyOp5
 70
     1
102
RTVSPropertyOp6
 70
     1
102
RTVSPropertyOp7
 70
     1
102
RTVSPropertyOp8
 70
     1
102
RTVSPropertyOp9
 70
     1
102
RTVSPropertyOp10
 70
     1
102
RTVSPropertyOp11
 70
     1
102
RTVSPropertyOp12
 70
     1
102
RTVSPropertyOp13
 70
     1
102
RTVSPropertyOp14
 70
     1
102
RTVSPropertyOp15
 70
     1
102
RTVSPropertyOp16
 70
     1
102
RTVSPropertyOp17
 70
     1
102
RTVSPropertyOp18
 70
     1
102
RTVSPropertyOp19
 70
     1
102
RTVSPropertyOp20
 70
     1
102
RTVSPropertyOp21
 70
     1
102
RTVSPropertyOp22
 70
     1
102
RTVSPropertyOp23
 70
     1
102
RTVSPropertyOp24
 70
     1
102
RTVSPropertyOp25
 70
     1
102
RTVSPropertyOp26
 70
     1
102
RTVSPropertyOp27
 70
     1
102
RTVSPropertyOp28
 70
     1
102
RTVSPropertyOp29
 70
     1
102
RTVSPropertyOp30
 70
     1
102
RTVSPropertyOp31
 70
     1
102
RTVSPropertyOp32
 70
     1
  0
XRECORD
  5
298
102
{ACAD_REACTORS
330
297
102
}
330
297
100
AcDbXrecord
280
     1
102
RTVSPropertyOp0
 70
     1
102
RTVSPropertyOp1
 70
     1
102
RTVSPropertyOp2
 70
     1
102
RTVSPropertyOp3
 70
     1
102
RTVSPropertyOp4
 70
     1
102
RTVSPropertyOp5
 70
     1
102
RTVSPropertyOp6
 70
     1
102
RTVSPropertyOp7
 70
     1
102
RTVSPropertyOp8
 70
     1
102
RTVSPropertyOp9
 70
     1
102
RTVSPropertyOp10
 70
     1
102
RTVSPropertyOp11
 70
     1
102
RTVSPropertyOp12
 70
     1
102
RTVSPropertyOp13
 70
     1
102
RTVSPropertyOp14
 70
     1
102
RTVSPropertyOp15
 70
     1
102
RTVSPropertyOp16
 70
     1
102
RTVSPropertyOp17
 70
     1
102
RTVSPropertyOp18
 70
     1
102
RTVSPropertyOp19
 70
     1
102
RTVSPropertyOp20
 70
     1
102
RTVSPropertyOp21
 70
     1
102
RTVSPropertyOp22
 70
     1
102
RTVSPropertyOp23
 70
     1
102
RTVSPropertyOp24
 70
     1
102
RTVSPropertyOp25
 70
     1
102
RTVSPropertyOp26
 70
     1
102
RTVSPropertyOp27
 70
     1
102
RTVSPropertyOp28
 70
     1
102
RTVSPropertyOp29
 70
     1
102
RTVSPropertyOp30
 70
     1
102
RTVSPropertyOp31
 70
     1
102
RTVSPropertyOp32
 70
     1
  0
XRECORD
  5
2A0
102
{ACAD_REACTORS
330
29F
102
}
330
29F
100
AcDbXrecord
280
     1
102
RTVSPropertyOp0
 70
     1
102
RTVSPropertyOp1
 70
     1
102
RTVSPropertyOp2
 70
     1
102
RTVSPropertyOp3
 70
     1
102
RTVSPropertyOp4
 70
     1
102
RTVSPropertyOp5
 70
     1
102
RTVSPropertyOp6
 70
     1
102
RTVSPropertyOp7
 70
     1
102
RTVSPropertyOp8
 70
     1
102
RTVSPropertyOp9
 70
     1
102
RTVSPropertyOp10
 70
     1
102
RTVSPropertyOp11
 70
     1
102
RTVSPropertyOp12
 70
     1
102
RTVSPropertyOp13
 70
     1
102
RTVSPropertyOp14
 70
     1
102
RTVSPropertyOp15
 70
     1
102
RTVSPropertyOp16
 70
     1
102
RTVSPropertyOp17
 70
     1
102
RTVSPropertyOp18
 70
     1
102
RTVSPropertyOp19
 70
     1
102
RTVSPropertyOp20
 70
     1
102
RTVSPropertyOp21
 70
     1
102
RTVSPropertyOp22
 70
     1
102
RTVSPropertyOp23
 70
     1
102
RTVSPropertyOp24
 70
     1
102
RTVSPropertyOp25
 70
     1
102
RTVSPropertyOp26
 70
     1
102
RTVSPropertyOp27
 70
     1
102
RTVSPropertyOp28
 70
     1
102
RTVSPropertyOp29
 70
     1
102
RTVSPropertyOp30
 70
     1
102
RTVSPropertyOp31
 70
     1
102
RTVSPropertyOp32
 70
     1
  0
XRECORD
  5
294
102
{ACAD_REACTORS
330
293
102
}
330
293
100
AcDbXrecord
280
     1
102
RTVSPropertyOp0
 70
     1
102
RTVSPropertyOp1
 70
     1
102
RTVSPropertyOp2
 70
     1
102
RTVSPropertyOp3
 70
     1
102
RTVSPropertyOp4
 70
     1
102
RTVSPropertyOp5
 70
     1
102
RTVSPropertyOp6
 70
     1
102
RTVSPropertyOp7
 70
     1
102
RTVSPropertyOp8
 70
     1
102
RTVSPropertyOp9
 70
     1
102
RTVSPropertyOp10
 70
     1
102
RTVSPropertyOp11
 70
     1
102
RTVSPropertyOp12
 70
     1
102
RTVSPropertyOp13
 70
     1
102
RTVSPropertyOp14
 70
     1
102
RTVSPropertyOp15
 70
     1
102
RTVSPropertyOp16
 70
     1
102
RTVSPropertyOp17
 70
     1
102
RTVSPropertyOp18
 70
     1
102
RTVSPropertyOp19
 70
     1
102
RTVSPropertyOp20
 70
     1
102
RTVSPropertyOp21
 70
     1
102
RTVSPropertyOp22
 70
     1
102
RTVSPropertyOp23
 70
     1
102
RTVSPropertyOp24
 70
     1
102
RTVSPropertyOp25
 70
     1
102
RTVSPropertyOp26
 70
     1
102
RTVSPropertyOp27
 70
     1
102
RTVSPropertyOp28
 70
     1
102
RTVSPropertyOp29
 70
     1
102
RTVSPropertyOp30
 70
     1
102
RTVSPropertyOp31
 70
     1
102
RTVSPropertyOp32
 70
     1
  0
XRECORD
  5
296
102
{ACAD_REACTORS
330
295
102
}
330
295
100
AcDbXrecord
280
     1
102
RTVSPropertyOp0
 70
     1
102
RTVSPropertyOp1
 70
     1
102
RTVSPropertyOp2
 70
     1
102
RTVSPropertyOp3
 70
     1
102
RTVSPropertyOp4
 70
     1
102
RTVSPropertyOp5
 70
     1
102
RTVSPropertyOp6
 70
     1
102
RTVSPropertyOp7
 70
     1
102
RTVSPropertyOp8
 70
     1
102
RTVSPropertyOp9
 70
     1
102
RTVSPropertyOp10
 70
     1
102
RTVSPropertyOp11
 70
     1
102
RTVSPropertyOp12
 70
     1
102
RTVSPropertyOp13
 70
     1
102
RTVSPropertyOp14
 70
     1
102
RTVSPropertyOp15
 70
     1
102
RTVSPropertyOp16
 70
     1
102
RTVSPropertyOp17
 70
     1
102
RTVSPropertyOp18
 70
     1
102
RTVSPropertyOp19
 70
     1
102
RTVSPropertyOp20
 70
     1
102
RTVSPropertyOp21
 70
     1
102
RTVSPropertyOp22
 70
     1
102
RTVSPropertyOp23
 70
     1
102
RTVSPropertyOp24
 70
     1
102
RTVSPropertyOp25
 70
     1
102
RTVSPropertyOp26
 70
     1
102
RTVSPropertyOp27
 70
     1
102
RTVSPropertyOp28
 70
     1
102
RTVSPropertyOp29
 70
     1
102
RTVSPropertyOp30
 70
     1
102
RTVSPropertyOp31
 70
     1
102
RTVSPropertyOp32
 70
     1
  0
XRECORD
  5
29E
102
{ACAD_REACTORS
330
29D
102
}
330
29D
100
AcDbXrecord
280
     1
102
RTVSPropertyOp0
 70
     1
102
RTVSPropertyOp1
 70
     1
102
RTVSPropertyOp2
 70
     1
102
RTVSPropertyOp3
 70
     1
102
RTVSPropertyOp4
 70
     1
102
RTVSPropertyOp5
 70
     1
102
RTVSPropertyOp6
 70
     1
102
RTVSPropertyOp7
 70
     1
102
RTVSPropertyOp8
 70
     1
102
RTVSPropertyOp9
 70
     1
102
RTVSPropertyOp10
 70
     1
102
RTVSPropertyOp11
 70
     1
102
RTVSPropertyOp12
 70
     1
102
RTVSPropertyOp13
 70
     1
102
RTVSPropertyOp14
 70
     1
102
RTVSPropertyOp15
 70
     1
102
RTVSPropertyOp16
 70
     1
102
RTVSPropertyOp17
 70
     1
102
RTVSPropertyOp18
 70
     1
102
RTVSPropertyOp19
 70
     1
102
RTVSPropertyOp20
 70
     1
102
RTVSPropertyOp21
 70
     1
102
RTVSPropertyOp22
 70
     1
102
RTVSPropertyOp23
 70
     1
102
RTVSPropertyOp24
 70
     1
102
RTVSPropertyOp25
 70
     1
102
RTVSPropertyOp26
 70
     1
102
RTVSPropertyOp27
 70
     1
102
RTVSPropertyOp28
 70
     1
102
RTVSPropertyOp29
 70
     1
102
RTVSPropertyOp30
 70
     1
102
RTVSPropertyOp31
 70
     1
102
RTVSPropertyOp32
 70
     1
  0
XRECORD
  5
282
102
{ACAD_REACTORS
330
281
102
}
330
281
100
AcDbXrecord
280
     1
102
RTVSPropertyOp0
 70
     1
102
RTVSPropertyOp1
 70
     1
102
RTVSPropertyOp2
 70
     1
102
RTVSPropertyOp3
 70
     1
102
RTVSPropertyOp4
 70
     1
102
RTVSPropertyOp5
 70
     1
102
RTVSPropertyOp6
 70
     1
102
RTVSPropertyOp7
 70
     1
102
RTVSPropertyOp8
 70
     1
102
RTVSPropertyOp9
 70
     1
102
RTVSPropertyOp10
 70
     1
102
RTVSPropertyOp11
 70
     1
102
RTVSPropertyOp12
 70
     1
102
RTVSPropertyOp13
 70
     1
102
RTVSPropertyOp14
 70
     1
102
RTVSPropertyOp15
 70
     1
102
RTVSPropertyOp16
 70
     1
102
RTVSPropertyOp17
 70
     1
102
RTVSPropertyOp18
 70
     1
102
RTVSPropertyOp19
 70
     1
102
RTVSPropertyOp20
 70
     1
102
RTVSPropertyOp21
 70
     1
102
RTVSPropertyOp22
 70
     1
102
RTVSPropertyOp23
 70
     1
102
RTVSPropertyOp24
 70
     1
102
RTVSPropertyOp25
 70
     1
102
RTVSPropertyOp26
 70
     1
102
RTVSPropertyOp27
 70
     1
102
RTVSPropertyOp28
 70
     1
102
RTVSPropertyOp29
 70
     1
102
RTVSPropertyOp30
 70
     1
102
RTVSPropertyOp31
 70
     1
102
RTVSPropertyOp32
 70
     1
  0
XRECORD
  5
284
102
{ACAD_REACTORS
330
283
102
}
330
283
100
AcDbXrecord
280
     1
102
RTVSPropertyOp0
 70
     1
102
RTVSPropertyOp1
 70
     1
102
RTVSPropertyOp2
 70
     1
102
RTVSPropertyOp3
 70
     1
102
RTVSPropertyOp4
 70
     1
102
RTVSPropertyOp5
 70
     1
102
RTVSPropertyOp6
 70
     1
102
RTVSPropertyOp7
 70
     1
102
RTVSPropertyOp8
 70
     1
102
RTVSPropertyOp9
 70
     1
102
RTVSPropertyOp10
 70
     1
102
RTVSPropertyOp11
 70
     1
102
RTVSPropertyOp12
 70
     1
102
RTVSPropertyOp13
 70
     1
102
RTVSPropertyOp14
 70
     1
102
RTVSPropertyOp15
 70
     1
102
RTVSPropertyOp16
 70
     1
102
RTVSPropertyOp17
 70
     1
102
RTVSPropertyOp18
 70
     1
102
RTVSPropertyOp19
 70
     1
102
RTVSPropertyOp20
 70
     1
102
RTVSPropertyOp21
 70
     1
102
RTVSPropertyOp22
 70
     1
102
RTVSPropertyOp23
 70
     1
102
RTVSPropertyOp24
 70
     1
102
RTVSPropertyOp25
 70
     1
102
RTVSPropertyOp26
 70
     1
102
RTVSPropertyOp27
 70
     1
102
RTVSPropertyOp28
 70
     1
102
RTVSPropertyOp29
 70
     1
102
RTVSPropertyOp30
 70
     1
102
RTVSPropertyOp31
 70
     1
102
RTVSPropertyOp32
 70
     1
  0
XRECORD
  5
286
102
{ACAD_REACTORS
330
285
102
}
330
285
100
AcDbXrecord
280
     1
102
RTVSPropertyOp0
 70
     1
102
RTVSPropertyOp1
 70
     1
102
RTVSPropertyOp2
 70
     1
102
RTVSPropertyOp3
 70
     1
102
RTVSPropertyOp4
 70
     1
102
RTVSPropertyOp5
 70
     1
102
RTVSPropertyOp6
 70
     1
102
RTVSPropertyOp7
 70
     1
102
RTVSPropertyOp8
 70
     1
102
RTVSPropertyOp9
 70
     1
102
RTVSPropertyOp10
 70
     1
102
RTVSPropertyOp11
 70
     1
102
RTVSPropertyOp12
 70
     1
102
RTVSPropertyOp13
 70
     1
102
RTVSPropertyOp14
 70
     1
102
RTVSPropertyOp15
 70
     1
102
RTVSPropertyOp16
 70
     1
102
RTVSPropertyOp17
 70
     1
102
RTVSPropertyOp18
 70
     1
102
RTVSPropertyOp19
 70
     1
102
RTVSPropertyOp20
 70
     1
102
RTVSPropertyOp21
 70
     1
102
RTVSPropertyOp22
 70
     1
102
RTVSPropertyOp23
 70
     1
102
RTVSPropertyOp24
 70
     1
102
RTVSPropertyOp25
 70
     1
102
RTVSPropertyOp26
 70
     1
102
RTVSPropertyOp27
 70
     1
102
RTVSPropertyOp28
 70
     1
102
RTVSPropertyOp29
 70
     1
102
RTVSPropertyOp30
 70
     1
102
RTVSPropertyOp31
 70
     1
102
RTVSPropertyOp32
 70
     1
  0
XRECORD
  5
288
102
{ACAD_REACTORS
330
287
102
}
330
287
100
AcDbXrecord
280
     1
102
RTVSPropertyOp0
 70
     1
102
RTVSPropertyOp1
 70
     1
102
RTVSPropertyOp2
 70
     1
102
RTVSPropertyOp3
 70
     1
102
RTVSPropertyOp4
 70
     1
102
RTVSPropertyOp5
 70
     1
102
RTVSPropertyOp6
 70
     1
102
RTVSPropertyOp7
 70
     1
102
RTVSPropertyOp8
 70
     1
102
RTVSPropertyOp9
 70
     1
102
RTVSPropertyOp10
 70
     1
102
RTVSPropertyOp11
 70
     1
102
RTVSPropertyOp12
 70
     1
102
RTVSPropertyOp13
 70
     1
102
RTVSPropertyOp14
 70
     1
102
RTVSPropertyOp15
 70
     1
102
RTVSPropertyOp16
 70
     1
102
RTVSPropertyOp17
 70
     1
102
RTVSPropertyOp18
 70
     1
102
RTVSPropertyOp19
 70
     1
102
RTVSPropertyOp20
 70
     1
102
RTVSPropertyOp21
 70
     1
102
RTVSPropertyOp22
 70
     1
102
RTVSPropertyOp23
 70
     1
102
RTVSPropertyOp24
 70
     1
102
RTVSPropertyOp25
 70
     1
102
RTVSPropertyOp26
 70
     1
102
RTVSPropertyOp27
 70
     1
102
RTVSPropertyOp28
 70
     1
102
RTVSPropertyOp29
 70
     1
102
RTVSPropertyOp30
 70
     1
102
RTVSPropertyOp31
 70
     1
102
RTVSPropertyOp32
 70
     1
  0
XRECORD
  5
29C
102
{ACAD_REACTORS
330
29B
102
}
330
29B
100
AcDbXrecord
280
     1
102
RTVSPropertyOp0
 70
     1
102
RTVSPropertyOp1
 70
     1
102
RTVSPropertyOp2
 70
     1
102
RTVSPropertyOp3
 70
     1
102
RTVSPropertyOp4
 70
     1
102
RTVSPropertyOp5
 70
     1
102
RTVSPropertyOp6
 70
     1
102
RTVSPropertyOp7
 70
     1
102
RTVSPropertyOp8
 70
     1
102
RTVSPropertyOp9
 70
     1
102
RTVSPropertyOp10
 70
     1
102
RTVSPropertyOp11
 70
     1
102
RTVSPropertyOp12
 70
     1
102
RTVSPropertyOp13
 70
     1
102
RTVSPropertyOp14
 70
     1
102
RTVSPropertyOp15
 70
     1
102
RTVSPropertyOp16
 70
     1
102
RTVSPropertyOp17
 70
     1
102
RTVSPropertyOp18
 70
     1
102
RTVSPropertyOp19
 70
     1
102
RTVSPropertyOp20
 70
     1
102
RTVSPropertyOp21
 70
     1
102
RTVSPropertyOp22
 70
     1
102
RTVSPropertyOp23
 70
     1
102
RTVSPropertyOp24
 70
     1
102
RTVSPropertyOp25
 70
     1
102
RTVSPropertyOp26
 70
     1
102
RTVSPropertyOp27
 70
     1
102
RTVSPropertyOp28
 70
     1
102
RTVSPropertyOp29
 70
     1
102
RTVSPropertyOp30
 70
     1
102
RTVSPropertyOp31
 70
     1
102
RTVSPropertyOp32
 70
     1
  0
XRECORD
  5
292
102
{ACAD_REACTORS
330
291
102
}
330
291
100
AcDbXrecord
280
     1
102
RTVSPropertyOp0
 70
     1
102
RTVSPropertyOp1
 70
     1
102
RTVSPropertyOp2
 70
     1
102
RTVSPropertyOp3
 70
     1
102
RTVSPropertyOp4
 70
     1
102
RTVSPropertyOp5
 70
     1
102
RTVSPropertyOp6
 70
     1
102
RTVSPropertyOp7
 70
     1
102
RTVSPropertyOp8
 70
     1
102
RTVSPropertyOp9
 70
     1
102
RTVSPropertyOp10
 70
     1
102
RTVSPropertyOp11
 70
     1
102
RTVSPropertyOp12
 70
     1
102
RTVSPropertyOp13
 70
     1
102
RTVSPropertyOp14
 70
     1
102
RTVSPropertyOp15
 70
     1
102
RTVSPropertyOp16
 70
     1
102
RTVSPropertyOp17
 70
     1
102
RTVSPropertyOp18
 70
     1
102
RTVSPropertyOp19
 70
     1
102
RTVSPropertyOp20
 70
     1
102
RTVSPropertyOp21
 70
     1
102
RTVSPropertyOp22
 70
     1
102
RTVSPropertyOp23
 70
     1
102
RTVSPropertyOp24
 70
     1
102
RTVSPropertyOp25
 70
     1
102
RTVSPropertyOp26
 70
     1
102
RTVSPropertyOp27
 70
     1
102
RTVSPropertyOp28
 70
     1
102
RTVSPropertyOp29
 70
     1
102
RTVSPropertyOp30
 70
     1
102
RTVSPropertyOp31
 70
     1
102
RTVSPropertyOp32
 70
     1
  0
XRECORD
  5
29A
102
{ACAD_REACTORS
330
299
102
}
330
299
100
AcDbXrecord
280
     1
102
RTVSPropertyOp0
 70
     1
102
RTVSPropertyOp1
 70
     1
102
RTVSPropertyOp2
 70
     1
102
RTVSPropertyOp3
 70
     1
102
RTVSPropertyOp4
 70
     1
102
RTVSPropertyOp5
 70
     1
102
RTVSPropertyOp6
 70
     1
102
RTVSPropertyOp7
 70
     1
102
RTVSPropertyOp8
 70
     1
102
RTVSPropertyOp9
 70
     1
102
RTVSPropertyOp10
 70
     1
102
RTVSPropertyOp11
 70
     1
102
RTVSPropertyOp12
 70
     1
102
RTVSPropertyOp13
 70
     1
102
RTVSPropertyOp14
 70
     1
102
RTVSPropertyOp15
 70
     1
102
RTVSPropertyOp16
 70
     1
102
RTVSPropertyOp17
 70
     1
102
RTVSPropertyOp18
 70
     1
102
RTVSPropertyOp19
 70
     1
102
RTVSPropertyOp20
 70
     1
102
RTVSPropertyOp21
 70
     1
102
RTVSPropertyOp22
 70
     1
102
RTVSPropertyOp23
 70
     1
102
RTVSPropertyOp24
 70
     1
102
RTVSPropertyOp25
 70
     1
102
RTVSPropertyOp26
 70
     1
102
RTVSPropertyOp27
 70
     1
102
RTVSPropertyOp28
 70
     1
102
RTVSPropertyOp29
 70
     1
102
RTVSPropertyOp30
 70
     1
102
RTVSPropertyOp31
 70
     1
102
RTVSPropertyOp32
 70
     1
  0
ENDSEC
  0
EOF
